[4K电影] 哈里斯夫人去巴黎 / Minions.The.Rise.of.Gru (2022) 4K高清版本下载

[复制链接]

2118

主题

2259

帖子

1万

积分

超级版主

Rank: 8Rank: 8

积分
16577
 楼主| 发表于 2022-8-2 21:24:29 | 显示全部楼层 |阅读模式
QQ图片20220802211908_副本.png

◎译  名 哈里斯夫人去巴黎
◎片  名 Mrs Harris Goes to Paris
◎年  代 2022
◎产  地 匈牙利/英国/加拿大/法国/美国/比利时
◎类  别 剧情/喜剧
◎语  言 英语
◎上映日期 2022-07-15(美国)
◎IMDb评分 7.6/10 from 1045 users
◎IMDb链接 https://www.imdb.com/title/tt5151570/
◎豆瓣评分 /10 from 0 users
◎豆瓣链接 https://movie.douban.com/subject/35220828/
◎导  演 安东尼·法比安 Anthony Fabian
◎编  剧 安东尼·法比安 Anthony Fabian / 卡罗尔·卡特赖特 Carroll Cartwright / 基思·汤普森 Keith Thompson / 奥莉薇亚·黑特理德 Olivia Hetreed / 保罗·加利科 Paul Gallico
◎主  演 詹森·艾萨克 Jason Isaacs
       莱丝利·曼维尔 Lesley Manville
       安娜·钱斯勒 Anna Chancellor
       罗斯·威廉姆斯 Rose Williams
       阿尔芭·巴普蒂斯塔 Alba Baptista
       卢卡斯·布哈沃 Lucas Bravo
       伊莎贝尔·于佩尔 Isabelle Huppert
       弗莱迪·福克斯 Freddie Fox
       朗贝尔·维尔森 Lambert Wilson
       罗珊妮·杜兰 Roxane Duran
       克里斯蒂安·麦凯 Christian McKay
       艾伦·托马斯 Ellen Thomas
       德尔罗伊·阿特金森 Delroy Atkinson
       杰瑞米·惠勒 Jeremy Wheeler
       莎拉·里克曼 Sarah Rickman
       本·阿迪斯 Ben Addis
       吉莱纳·隆代 Guilaine Londez
       巴纳巴斯·雷蒂 Barnabás Réti
       文森特·马丁 Vincent Martin
       伊戈尔·萨斯兹 Igor Szasz
       佐尔特·帕尔 Zsolt Páll
       彼得·维赫 Péter Végh
       巴尔·瓦斯维尔斯 Balázs Veres


◎简  介


  影片改编自保罗·加利科同名畅销小说。讲述1950年代的伦敦,一个寡居的清洁女工(莱丝利·曼维尔 饰)疯狂地爱上了一件迪奥的高级定制的裙子,并决定要有一件属于她自己的。在经历了工作、挨饿和赌博筹集资金以追求自己的梦想之后,她开始了前往巴黎的冒险之旅,这不仅将改变她的前景,还会让这座标志性时尚之都的未来焕然一新。
Video
ID : 1
Format : HEVC
Format/Info : High Efficiency Video Coding
Format profile : Main 10@L5@High
HDR format : SMPTE ST 2086, HDR10 compatible
Codec ID : V_MPEGH/ISO/HEVC
Duration : 1 h 55 min
Bit rate : 14.6 Mb/s
Width : 3 836 pixels
Height : 1 600 pixels
Display aspect ratio : 2.40:1
Original display aspect ratio : 2.40:1
Frame rate mode : Constant
Frame rate : 23.976 FPS
Color space : YUV
Chroma subsampling : 4:2:0 (Type 2)
Bit depth : 10 bits
Bits/(Pixel*Frame) : 0.099
Stream size : 11.8 GiB (96%)
Language : English
Default : Yes
Forced : No
Color range : Limited
Color primaries : BT.2020
Transfer characteristics : PQ
Matrix coefficients : BT.2020 non-constant
Mastering display color primaries : Display P3
Mastering display luminance : min: 0.0050 cd/m2, max: 1000 cd/m2
Maximum Content Light Level : 811 cd/m2
Maximum Frame-Average Light Level : 117 cd/m2

Audio
ID : 2
Format : E-AC-3
Format/Info : Enhanced AC-3
Commercial name : Dolby Digital Plus
Codec ID : A_EAC3
Duration : 1 h 55 min
Bit rate mode : Constant
Bit rate : 640 kb/s
Channel(s) : 6 channels
Channel layout : L R C LFE Ls Rs
Sampling rate : 48.0 kHz
Frame rate : 31.250 FPS (1536 SPF)
Compression mode : Lossy
Stream size : 531 MiB (4%)
Language : English
Service kind : Complete Main
Default : Yes
Forced : No

Text #1
ID : 3
Format : UTF-8
Codec ID : S_TEXT/UTF8
Codec ID/Info : UTF-8 Plain Text
Duration : 1 h 14 min
Bit rate : 7 b/s
Frame rate : 0.035 FPS
Count of elements : 156
Stream size : 4.27 KiB (0%)
Title : British Forced
Language : English
Default : No
Forced : Yes

Text #2
ID : 4
Format : UTF-8
Codec ID : S_TEXT/UTF8
Codec ID/Info : UTF-8 Plain Text
Duration : 1 h 54 min
Bit rate : 47 b/s
Frame rate : 0.225 FPS
Count of elements : 1553
Stream size : 40.0 KiB (0%)
Title : British
Language : English
Default : Yes
Forced : No

Text #3
ID : 5
Format : UTF-8
Codec ID : S_TEXT/UTF8
Codec ID/Info : UTF-8 Plain Text
Duration : 1 h 55 min
Bit rate : 54 b/s
Frame rate : 0.260 FPS
Count of elements : 1797
Stream size : 46.2 KiB (0%)
Title : British SDH
Language : English
Default : No
Forced : No

Text #4
ID : 6
Format : UTF-8
Codec ID : S_TEXT/UTF8
Codec ID/Info : UTF-8 Plain Text
Duration : 1 h 48 min
Bit rate : 47 b/s
Frame rate : 0.193 FPS
Count of elements : 1255
Stream size : 37.9 KiB (0%)
Title : Canadian
Language : French
Default : No
Forced : No

Menu
00:00:00.000 : en:Chapter 01
00:09:15.221 : en:Chapter 02
00:16:03.463 : en:Chapter 03
00:21:06.266 : en:Chapter 04
00:25:43.585 : en:Chapter 05
00:33:11.241 : en:Chapter 06
00:39:29.369 : en:Chapter 07
00:49:41.606 : en:Chapter 08
00:55:52.185 : en:Chapter 09
00:59:27.442 : en:Chapter 10
01:04:37.377 : en:Chapter 11
01:10:30.146 : en:Chapter 12
01:16:57.158 : en:Chapter 13
01:21:06.199 : en:Chapter 14
01:25:45.061 : en:Chapter 15
01:31:52.554 : en:Chapter 16
01:36:37.756 : en:Chapter 17
01:43:27.540 : en:Chapter 18
01:46:49.075 : en:Chapter 19
01:50:34.426 : en:Chapter 20
资源速度为零或资源敏感被和谐时,推荐使用qBittorrent等下载软件,有条件的推荐115更好的下载软件!

下载地址:



游客,如果您要查看本帖隐藏内容请回复

游客,如果您要查看本帖隐藏内容请回复

游客,如果您要查看本帖隐藏内容请回复

游客,如果您要查看本帖隐藏内容请回复





上一篇:我们现在这样 / As They Made Us (2022) 4K高清版本下载
下一篇:小黄人大眼萌:神偷奶爸前传 (2022) 4K高清版本下载
回复

使用道具 举报

41

主题

1537

帖子

4443

积分

4K家园VIP

Rank: 9Rank: 9Rank: 9

积分
4443
发表于 2022-8-2 21:24:34 | 显示全部楼层
非常好,顶一下
回复 支持 反对

使用道具 举报

59

主题

1569

帖子

4503

积分

4K家园VIP

Rank: 9Rank: 9Rank: 9

积分
4503
发表于 2022-8-3 03:03:36 | 显示全部楼层
没人回帖。。。我来个吧
回复 支持 反对

使用道具 举报

1

主题

1315

帖子

3961

积分

4K家园VIP

Rank: 9Rank: 9Rank: 9

积分
3961
发表于 2022-8-3 06:01:37 | 显示全部楼层
有4K版卡,下个看下
回复 支持 反对

使用道具 举报

48

主题

1547

帖子

4451

积分

4K家园VIP

Rank: 9Rank: 9Rank: 9

积分
4451
发表于 2022-8-3 09:19:05 | 显示全部楼层
支持下楼主,顶一个
回复 支持 反对

使用道具 举报

53

主题

1542

帖子

4466

积分

4K家园VIP

Rank: 9Rank: 9Rank: 9

积分
4466
发表于 2022-8-3 11:08:31 | 显示全部楼层
不错 支持下
回复 支持 反对

使用道具 举报

0

主题

2

帖子

9

积分

新手上路

Rank: 1

积分
9
发表于 2022-8-3 18:30:58 | 显示全部楼层
GOOD DAY DAYS DAY
回复 支持 反对

使用道具 举报

0

主题

1

帖子

6

积分

新手上路

Rank: 1

积分
6
发表于 7 天前 | 显示全部楼层
有4K版卡,下个看下
回复 支持 反对

使用道具 举报

0

主题

1

帖子

6

积分

新手上路

Rank: 1

积分
6
发表于 7 天前 | 显示全部楼层
试试看
回复

使用道具 举报

0

主题

3

帖子

312

积分

4K家园VIP

Rank: 9Rank: 9Rank: 9

积分
312
发表于 7 天前 | 显示全部楼层
标题里的英文名字错了。。。。。。
回复 支持 反对

使用道具 举报

您需要登录后才可以回帖 登录 | 立即注册

本版积分规则

精彩图文
Archiver|手机版|TAG|Sitemap|新帖|专题|联系我们:邮箱: 4kjia.com@gmail.com   

4k家园   ©2019