[4K电影] 小黄人大眼萌:神偷奶爸前传 (2022) 4K高清版本下载

[复制链接]

2118

主题

2259

帖子

1万

积分

超级版主

Rank: 8Rank: 8

积分
16577
 楼主| 发表于 2022-8-2 21:28:52 | 显示全部楼层 |阅读模式
本帖最后由 最爱4K哟 于 2022-8-2 21:30 编辑

QQ图片20220802211956_副本.png

◎译  名 小黄人大眼萌:神偷奶爸前传/迷你兵团Ⅱ(港)/小黄人2:格鲁的崛起/小黄人大电影Ⅱ/小黄人大眼萌2:格鲁的崛起/小黄人大眼萌Ⅱ/小黄人Ⅱ/小小兵2:格鲁的崛起(台)/小小兵Ⅱ(台)/Minions 2
◎片  名 Minions: The Rise of Gru
◎年  代 2022
◎产  地 美国
◎类  别 喜剧/动画/冒险
◎语  言 英语/越南语
◎上映日期 2022-06-13(安锡国际动画节)/2022-07-01(美国)
◎IMDb评分 6.9/10 from 28318 users
◎IMDb链接 https://www.imdb.com/title/tt5113044/
◎豆瓣评分 7.6/10 from 7184 users
◎豆瓣链接 https://douban.com/subject/26642033/
◎片  长 87分钟
◎导  演 凯尔·巴尔达 Kyle Balda / 布拉德·埃布尔森 Brad Ableson / 何塞·瓦尔德尔·奥马尔 José Val del Omar
◎编  剧 马修·福格尔 Matthew Fogel / 布莱恩·林奇 Brian Lynch / 辛科·保罗 Cinco Paul
◎主  演 史蒂夫·卡瑞尔 Steve Carell
       皮埃尔·柯芬 Pierre Coffin
       艾伦·阿金 Alan Arkin
       塔拉吉·P·汉森 Taraji P. Henson
       杨紫琼 Michelle Yeoh
       朱莉·安德鲁斯 Julie Andrews
       拉塞尔·布兰德 Russell Brand
       尚格·云顿 Jean-Claude Van Damme
       杜夫·龙格尔 Dolph Lundgren
       丹尼·特雷霍 Danny Trejo
       露西·劳莱丝 Lucy Lawless
       欧阳万成 Jimmy O. Yang
       凯文·迈克尔·理查德森 Kevin Michael Richardson
       约翰·迪·马吉欧 John Di Maggio
       罗伯特·菲茨杰拉德·迪格斯 RZA
       迈克尔·贝亚蒂 Michael Beattie
       威尔·阿奈特 Will Arnett
       史蒂夫·库根 Steve Coogan
       雷蒙德·S·佩尔西 Raymond S. Persi
       凯尔·巴尔达 Kyle Balda
       鲍伯·伯根 Bob Bergen
       比务·比林格斯勒拉 Beau Billingslea
       大卫·陈 David Chen
       梅里·康德伦 Meilee Condron
       安东尼奥·劳尔·科尔波 Antonio Raul Corbo
       黛比·德里贝里 Debi Derryberry
       斯嘉丽·艾斯特维兹 Scarlett Estevez
       杰克·格林 Jake Green
       雷蒙·汉密尔顿 Ramone Hamilton
       亚伦·亨德利 Aaron Hendry
       山姆·拉瓦尼诺 Sam Lavagnino
       达恩·刘易斯 Dawnn Lewis
       阿玛丽·麦考伊 Amari McCoy
       内芙·沙雷尔 Nev Scharrel
       詹姆士·谢 James Sie
       明迪·斯特林 Mindy Sterling
       弗雷德·塔特西奥 Fred Tatasciore
       雷吉纳·托芬 Regina Taufen
       黛布拉·威尔逊 Debra Wilson
       凯文·哈特 Kevin Hart
       玛格特·罗比 Margot Robbie
       戴夫·巴蒂斯塔 Dave Bautista

◎简  介


  这部新片将是2015年推出的小黄人独立电影《小黄人大眼萌》的直接续集。它作为《神偷奶爸》的衍生作品,讲述了小黄人们在“前格鲁”时代为其他主人服务的经历,不过少年格鲁曾经出现在这部衍生电影里,续集将围绕他与小黄人们结缘的过程展开剧情。

Video
ID : 1
Format : HEVC
Format/Info : High Efficiency Video Coding
Format profile : Main 10@L5@High
HDR format : Dolby Vision, Version 1.0, dvhe.05.06, BL+RPU
Codec ID : V_MPEGH/ISO/HEVC
Duration : 1 h 27 min
Bit rate : 24.5 Mb/s
Width : 3 832 pixels
Height : 1 596 pixels
Display aspect ratio : 2.40:1
Frame rate mode : Constant
Frame rate : 23.976 (24000/1001) FPS
Color space : YUV
Chroma subsampling : 4:2:0
Bit depth : 10 bits
Bits/(Pixel*Frame) : 0.167
Stream size : 15.0 GiB (97%)
Default : Yes
Forced : No

Audio
ID : 2
Format : E-AC-3 JOC
Format/Info : Enhanced AC-3 with Joint Object Coding
Commercial name : Dolby Digital Plus with Dolby Atmos
Codec ID : A_EAC3
Duration : 1 h 27 min
Bit rate mode : Constant
Bit rate : 768 kb/s
Channel(s) : 6 channels
Channel layout : L R C LFE Ls Rs
Sampling rate : 48.0 kHz
Frame rate : 31.250 FPS (1536 SPF)
Compression mode : Lossy
Stream size : 481 MiB (3%)
Language : English
Service kind : Complete Main
Default : Yes
Forced : No
Complexity index : 16
Number of dynamic objects : 15
Bed channel count : 1 channel
Bed channel configuration : LFE

Text #1
ID : 3
Format : UTF-8
Codec ID : S_TEXT/UTF8
Codec ID/Info : UTF-8 Plain Text
Duration : 1 h 26 min
Bit rate : 44 b/s
Frame rate : 0.237 FPS
Count of elements : 1238
Stream size : 28.1 KiB (0%)
Language : English
Default : No
Forced : No

Text #2
ID : 4
Format : UTF-8
Codec ID : S_TEXT/UTF8
Codec ID/Info : UTF-8 Plain Text
Duration : 1 h 27 min
Bit rate : 69 b/s
Frame rate : 0.361 FPS
Count of elements : 1892
Stream size : 44.5 KiB (0%)
Title : SDH
Language : English
Default : No
Forced : No

Text #3
ID : 5
Format : UTF-8
Codec ID : S_TEXT/UTF8
Codec ID/Info : UTF-8 Plain Text
Duration : 1 h 26 min
Bit rate : 34 b/s
Frame rate : 0.182 FPS
Count of elements : 949
Stream size : 22.0 KiB (0%)
Title : Latin American
Language : Spanish
Default : No
Forced : No

Text #4
ID : 6
Format : UTF-8
Codec ID : S_TEXT/UTF8
Codec ID/Info : UTF-8 Plain Text
Duration : 1 h 26 min
Bit rate : 37 b/s
Frame rate : 0.181 FPS
Count of elements : 936
Stream size : 23.7 KiB (0%)
Title : Canadian
Language : French
Default : No
Forced : No

Menu
00:00:00.000 : en:Chapter 01
00:02:21.558 : en:Chapter 02
00:07:38.083 : en:Chapter 03
00:12:47.684 : en:Chapter 04
00:17:50.528 : en:Chapter 05
00:20:46.329 : en:Chapter 06
00:26:20.538 : en:Chapter 07
00:29:01.658 : en:Chapter 08
00:33:33.430 : en:Chapter 09
00:38:49.454 : en:Chapter 10
00:43:23.770 : en:Chapter 11
00:48:59.773 : en:Chapter 12
00:50:27.068 : en:Chapter 13
00:55:39.631 : en:Chapter 14
01:00:00.975 : en:Chapter 15
01:05:33.058 : en:Chapter 16
01:07:40.977 : en:Chapter 17
01:10:58.133 : en:Chapter 18
01:16:26.169 : en:Chapter 19
01:19:31.104 : en:Chapter 20

资源速度为零或资源敏感被和谐时,推荐使用qBittorrent等下载软件,有条件的推荐115更好的下载软件!

下载地址:

游客,如果您要查看本帖隐藏内容请回复

游客,如果您要查看本帖隐藏内容请回复

游客,如果您要查看本帖隐藏内容请回复

游客,如果您要查看本帖隐藏内容请回复

游客,如果您要查看本帖隐藏内容请回复








上一篇:哈里斯夫人去巴黎 / Minions.The.Rise.of.Gru (2022) 4K高清版本下载
下一篇:献祭 / Sacrifice (2020) 4K高清版本下载
回复

使用道具 举报

2

主题

1427

帖子

4254

积分

4K家园VIP

Rank: 9Rank: 9Rank: 9

积分
4254
发表于 2022-8-2 21:28:55 | 显示全部楼层
回复 支持 反对

使用道具 举报

0

主题

8321

帖子

1万

积分

4K家园VIP

Rank: 9Rank: 9Rank: 9

积分
19318
发表于 2022-8-3 10:29:15 | 显示全部楼层
太好啦&萬分感謝版主的無私發佈分享%
回复 支持 反对

使用道具 举报

0

主题

28

帖子

223

积分

新手上路

Rank: 1

积分
223
发表于 2022-8-3 10:51:37 | 显示全部楼层
66666666666666666
回复 支持 反对

使用道具 举报

0

主题

6

帖子

31

积分

新手上路

Rank: 1

积分
31
发表于 2022-8-3 11:11:20 | 显示全部楼层
辛苦楼主了
回复 支持 反对

使用道具 举报

0

主题

426

帖子

2601

积分

注册会员

Rank: 2

积分
2601
发表于 2022-8-3 11:59:48 | 显示全部楼层
萬分感謝版主的無私發佈分享
回复 支持 反对

使用道具 举报

0

主题

5

帖子

21

积分

新手上路

Rank: 1

积分
21
发表于 2022-8-3 12:45:08 | 显示全部楼层
感谢楼主的分享
回复 支持 反对

使用道具 举报

0

主题

9

帖子

345

积分

新手上路

Rank: 1

积分
345
发表于 2022-8-3 13:06:41 | 显示全部楼层
谢谢,下来看看。。。
回复 支持 反对

使用道具 举报

0

主题

1

帖子

6

积分

新手上路

Rank: 1

积分
6
发表于 2022-8-3 14:52:57 | 显示全部楼层
谢谢楼主
回复

使用道具 举报

0

主题

1

帖子

6

积分

新手上路

Rank: 1

积分
6
发表于 2022-8-3 15:07:13 | 显示全部楼层
回复

使用道具 举报

您需要登录后才可以回帖 登录 | 立即注册

本版积分规则

精彩图文
Archiver|手机版|TAG|Sitemap|新帖|专题|联系我们:邮箱: 4kjia.com@gmail.com   

4k家园   ©2019