[4K电影] 献祭 / Sacrifice (2020) 4K高清版本下载

[复制链接]

2118

主题

2259

帖子

1万

积分

超级版主

Rank: 8Rank: 8

积分
16577
 楼主| 发表于 2022-8-2 21:55:35 | 显示全部楼层 |阅读模式
QQ图片20220802213756_副本.png

◎译  名 献祭
◎片  名 Sacrifice
◎年  代 2020
◎产  地 英国
◎类  别 恐怖
◎语  言 英语
◎上映日期 2020-10-22(伦敦恐怖电影节) / 2021-02-09(美国)
◎IMDb评分 4.6/10 from 1042 users
◎IMDb链接 https://www.imdb.com/title/tt10004108/
◎豆瓣评分 0/10 from 0 users
◎豆瓣链接 https://movie.douban.com/subject/35151607/
◎主  演 苏菲·史蒂文斯 Sophie Stevens
                   芭芭拉·克兰普顿 Barbara Crampton
       卢卡斯·洛克伦 Lukas Loughran
                   Johanna Adde Dahl Johanna Adde Dahl
                   杰克·克里斯蒂安森 Jack Kristiansen
                   Erik Lundin Erik Lundin
                   达格·索利 Dag Soerlie
                   Ingeborg Mork Håskjold  Ingeborg Mork Håskjold
                   埃德温·罗斯·奥耶 Edwin Roseth-Oye
                   Annika Josefine Stromblad Annika Josefine Stromblad
                   Balder Bjørke Balder Bjørke
                   阿德里安·戴伦 Adrian Dalen



◎简  介

  母亲去世后,艾萨克和怀孕的妻子艾玛回到他出生的挪威偏远岛屿,处理一笔意外的遗产。他们发现自己陷入了一场噩梦,因为一场古老的宇宙恐怖觉醒,声称自己有了出生的权利。

Video
ID : 1
Format : HEVC
Format/Info : High Efficiency Video Coding
Format profile : Main@L5@Main
Codec ID : V_MPEGH/ISO/HEVC
Duration : 1 h 27 min
Bit rate : 14.9 Mb/s
Width : 3 840 pixels
Height : 2 160 pixels
Display aspect ratio : 16:9
Frame rate mode : Constant
Frame rate : 23.976 (24000/1001) FPS
Color space : YUV
Chroma subsampling : 4:2:0
Bit depth : 8 bits
Bits/(Pixel*Frame) : 0.075
Stream size : 9.09 GiB (90%)
Writing library : x265 3.5hy:[Linux][GCC 7.5.0][64 bit] 8bit
Encoding settings : cpuid=1111039 / frame-threads=2 / wpp / no-pmode / no-pme / no-psnr / no-ssim / log-level=2 / input-csp=1 / input-res=3840x2160 / interlace=0 / total-frames=0 / level-idc=0 / high-tier=1 / uhd-bd=0 / ref=4 / no-allow-non-conformance / repeat-headers / annexb / aud / hrd / info / hash=0 / no-temporal-layers / no-open-gop / min-keyint=48 / keyint=48 / gop-lookahead=0 / bframes=4 / b-adapt=2 / b-pyramid / bframe-bias=0 / rc-lookahead=48 / lookahead-slices=4 / scenecut=0 / hist-scenecut=0 / radl=0 / no-splice / no-intra-refresh / ctu=64 / min-cu-size=8 / rect / no-amp / max-tu-size=32 / tu-inter-depth=1 / tu-intra-depth=1 / limit-tu=0 / rdoq-level=2 / dynamic-rd=0.00 / no-ssim-rd / signhide / no-tskip / nr-intra=100 / nr-inter=200 / no-constrained-intra / strong-intra-smoothing / max-merge=3 / limit-refs=3 / limit-modes / me=3 / subme=3 / merange=57 / temporal-mvp / no-frame-dup / no-hme / weightp / no-weightb / no-analyze-src-pics / deblock=0:0 / no-sao / no-sao-non-deblock / rd=4 / selective-sao=0 / no-early-skip / no-rskip / no-fast-intra / no-tskip-fast / no-cu-lossless / no-b-intra / no-splitrd-skip / rdpenalty=0 / psy-rd=0.00 / psy-rdoq=10.00 / no-rd-refine / no-lossless / cbqpoffs=0 / crqpoffs=0 / rc=abr / bitrate=15000 / qcomp=0.60 / qpstep=1 / stats-write=0 / stats-read=2 / cplxblur=20.0 / qblur=0.5 / vbv-maxrate=18000 / vbv-bufsize=12000 / vbv-init=0.6 / min-vbv-fullness=50.0 / max-vbv-fullness=80.0 / vbv-end=0.6 / vbv-end-fr-adj=0.0 / ipratio=1.10 / pbratio=1.00 / aq-mode=0 / aq-strength=0.00 / no-cutree / zone-count=0 / no-strict-cbr / qg-size=32 / rc-grain / qpmax=69 / qpmin=0 / const-vbv / sar=0 / overscan=0 / videoformat=5 / range=0 / colorprim=1 / transfer=1 / colormatrix=1 / chromaloc=0 / display-window=0 / cll=0,0 / min-luma=0 / max-luma=255 / log2-max-poc-lsb=8 / vui-timing-info / vui-hrd-info / no-concatenation / slices=1 / no-opt-qp-pps / no-opt-ref-list-length-pps / no-multi-pass-opt-rps / scenecut-bias=0.05 / hist-threshold=0.03 / no-opt-cu-delta-qp / no-aq-motion / no-hdr10 / no-hdr10-opt / no-dhdr10-opt / no-idr-recovery-sei / analysis-reuse-level=0 / analysis-save-reuse-level=0 / analysis-load-reuse-level=0 / scale-factor=0 / refine-intra=0 / refine-inter=0 / refine-mv=1 / refine-ctu-distortion=0 / no-limit-sao / ctu-info=0 / no-lowpass-dct / refine-analysis-type=0 / copy-pic=1 / max-ausize-factor=1.0 / no-dynamic-refine / no-single-sei / no-hevc-aq / no-svt / no-field / qp-adaptation-range=1.00 / scenecut-aware-qp=0conformance-window-offsets / right=0 / bottom=0 / decoder-max-rate=0 / no-vbv-live-multi-pass
Language : English
Default : Yes
Forced : No
Color range : Limited
Color primaries : BT.709
Transfer characteristics : BT.709
Matrix coefficients : BT.709

Audio #1
ID : 2
Format : DTS XLL
Format/Info : Digital Theater Systems
Commercial name : DTS-HD Master Audio
Codec ID : A_DTS
Duration : 1 h 27 min
Bit rate mode : Variable
Bit rate : 1 395 kb/s
Channel(s) : 6 channels
Channel layout : C L R Ls Rs LFE
Sampling rate : 48.0 kHz
Frame rate : 93.750 FPS (512 SPF)
Bit depth : 16 bits
Compression mode : Lossless
Delay relative to video : 7 ms
Stream size : 873 MiB (8%)
Title : DTS-HD MA 5.1
Language : English
Default : Yes
Forced : No

Audio #2
ID : 3
Format : AC-3
Format/Info : Audio Coding 3
Commercial name : Dolby Digital
Codec ID : A_AC3
Duration : 1 h 27 min
Bit rate mode : Constant
Bit rate : 192 kb/s
Channel(s) : 2 channels
Channel layout : L R
Sampling rate : 48.0 kHz
Frame rate : 31.250 FPS (1536 SPF)
Compression mode : Lossy
Stream size : 120 MiB (1%)
Title : DD 5.1
Language : English
Service kind : Complete Main
Default : No
Forced : No

Text
ID : 4
Format : UTF-8
Codec ID : S_TEXT/UTF8
Codec ID/Info : UTF-8 Plain Text
Duration : 1 h 25 min
Bit rate : 49 b/s
Frame rate : 0.237 FPS
Count of elements : 1212
Stream size : 31.0 KiB (0%)
Title : English (SDH)
Language : English
Default : Yes
Forced : No

资源速度为零或资源敏感被和谐时,推荐使用qBittorrent等下载软件,有条件的推荐115更好的下载软件!

下载地址:


游客,如果您要查看本帖隐藏内容请回复





上一篇:小黄人大眼萌:神偷奶爸前传 (2022) 4K高清版本下载
下一篇:光年正传 [简繁粤中字] / Lightyear (2022) 4K高清版本下载
回复

使用道具 举报

2

主题

1355

帖子

4085

积分

4K家园VIP

Rank: 9Rank: 9Rank: 9

积分
4085
发表于 2022-8-2 21:55:41 | 显示全部楼层
我了个去,顶了
回复 支持 反对

使用道具 举报

0

主题

4

帖子

15

积分

新手上路

Rank: 1

积分
15
发表于 2022-8-3 16:34:37 | 显示全部楼层
十分感谢楼主分享
回复 支持 反对

使用道具 举报

0

主题

18

帖子

31

积分

新手上路

Rank: 1

积分
31
发表于 7 天前 | 显示全部楼层
谁看过,分够不,挣分下载啊
回复 支持 反对

使用道具 举报

1

主题

1305

帖子

3939

积分

4K家园VIP

Rank: 9Rank: 9Rank: 9

积分
3939
发表于 6 天前 | 显示全部楼层
占坑编辑ing
回复 支持 反对

使用道具 举报

3

主题

1310

帖子

3952

积分

4K家园VIP

Rank: 9Rank: 9Rank: 9

积分
3952
发表于 5 天前 | 显示全部楼层
珍爱生命,果断回帖。
回复 支持 反对

使用道具 举报

2

主题

1406

帖子

4240

积分

4K家园VIP

Rank: 9Rank: 9Rank: 9

积分
4240
发表于 3 天前 | 显示全部楼层
回复 支持 反对

使用道具 举报

2

主题

1378

帖子

4000

积分

4K家园VIP

Rank: 9Rank: 9Rank: 9

积分
4000
发表于 3 天前 | 显示全部楼层
垃圾
回复 支持 反对

使用道具 举报

您需要登录后才可以回帖 登录 | 立即注册

本版积分规则

精彩图文
Archiver|手机版|TAG|Sitemap|新帖|专题|联系我们:邮箱: 4kjia.com@gmail.com   

4k家园   ©2019