[国家地理] [4K国家地理] 来自灰烬 (2020) [2160P/MKV/610MB]

[复制链接]

2856

主题

3223

帖子

2万

积分

超级版主

Rank: 8Rank: 8

积分
27260
 楼主| 发表于 2022-8-15 20:53:50 | 显示全部楼层 |阅读模式
本帖最后由 叽里呱啦 于 2022-8-3 10:52 编辑

从灰烬中(2020)WEBRip 2160p.mkv_20220803_103553.304.jpg 从灰烬中(2020)WEBRip 2160p.mkv_20220803_103607.247.jpg 从灰烬中(2020)WEBRip 2160p.mkv_20220803_103620.040.jpg 从灰烬中(2020)WEBRip 2160p.mkv_20220803_103637.008.jpg 从灰烬中(2020)WEBRip 2160p.mkv_20220803_103652.271.jpg 从灰烬中(2020)WEBRip 2160p.mkv_20220803_103714.879.jpg

影片信息
片名:来自灰烬
上映年份: 2020
国家:加拿大
持续时间: 00:04 : 05
类型: 物种
导演:瑞恩·吉布

关于电影:

      “来自灰烬”是向前迈进的视觉隐喻,当你周围的世界似乎崩溃时。

Video
ID                             : 1
Format                         : AVC
Format/Info                    : Advanced Video Codec
Format profile                 : High@L5.2
Format settings                : CABAC / 5 Ref Frames
Format settings, CABAC         : Yes
Format settings, Reference fra : 5 frames
Codec ID                       : V_MPEG4/ISO/AVC
Duration                       : 4 min 5 s
Bit rate                       : 20.6 Mb/s
Width                          : 3 840 pixels
Height                         : 1 920 pixels
Display aspect ratio           : 2.000
Frame rate mode                : Constant
Frame rate                     : 23.976 (24000/1001) FPS
Color space                    : YUV
Chroma subsampling             : 4:2:0
Bit depth                      : 8 bits
Scan type                      : Progressive
Bits/(Pixel*Frame)             : 0.116
Stream size                    : 603 MiB (99%)
Writing library                : x264 core 160 r10 22fcbe1
Encoding settings              : cabac=1 / ref=5 / deblock=1:0:0 / analyse=0x3:0x113 / me=hex / subme=8 / psy=1 / psy_rd=1.00:0.00 / mixed_ref=1 / me_range=16 / chroma_me=1 / trellis=2 / 8x8dct=1 / cqm=0 / deadzone=21,11 / fast_pskip=1 / chroma_qp_offset=-2 / threads=48 / lookahead_threads=8 / sliced_threads=0 / nr=0 / decimate=1 / interlaced=0 / bluray_compat=0 / stitchable=1 / constrained_intra=0 / bframes=3 / b_pyramid=2 / b_adapt=2 / b_bias=0 / direct=3 / weightb=1 / open_gop=0 / weightp=2 / keyint=infinite / keyint_min=23 / scenecut=40 / intra_refresh=0 / rc_lookahead=50 / rc=crf / mbtree=1 / crf=20.0 / qcomp=0.60 / qpmin=5 / qpmax=69 / qpstep=4 / vbv_maxrate=24200 / vbv_bufsize=66000 / crf_max=0.0 / nal_hrd=none / filler=0 / ip_ratio=1.40 / aq=1:1.00
Default                        : Yes
Forced                         : No
Color range                    : Limited
Color primaries                : BT.709
Transfer characteristics       : BT.709
Matrix coefficients            : BT.709

Audio
ID                             : 2
Format                         : AAC LC
Format/Info                    : Advanced Audio Codec Low Complexity
Codec ID                       : A_AAC-2
Duration                       : 4 min 5 s
Bit rate                       : 253 kb/s
Channel(s)                     : 2 channels
Channel layout                 : L R
Sampling rate                  : 48.0 kHz
Frame rate                     : 46.875 FPS (1024 SPF)
Compression mode               : Lossy
Delay relative to video        : -83 ms
Stream size                    : 7.42 MiB (1%)
Default                        : Yes
Forced                         : No

下载地址:

游客,如果您要查看本帖隐藏内容请回复




上一篇:[4K国家地理] 意大利国家公园-大天堂 (2021) [2160P/MKV/371MB]
下一篇:[4K国家地理] 车里雅宾斯克 (2020) [2160P/MKV/342MB]
回复

使用道具 举报

2

主题

1385

帖子

4021

积分

4K家园VIP

Rank: 9Rank: 9Rank: 9

积分
4021
发表于 2022-8-15 20:53:54 | 显示全部楼层
沙发位出租,
回复 支持 反对

使用道具 举报

0

主题

8663

帖子

2万

积分

4K家园VIP

Rank: 9Rank: 9Rank: 9

积分
20189
发表于 2022-8-15 20:59:14 | 显示全部楼层
加拿大★來自灰燼4k
回复 支持 反对

使用道具 举报

0

主题

14

帖子

102

积分

新手上路

Rank: 1

积分
102
发表于 2022-8-16 00:29:02 | 显示全部楼层
下来看看,谢谢!
回复 支持 反对

使用道具 举报

41

主题

1500

帖子

4300

积分

4K家园VIP

Rank: 9Rank: 9Rank: 9

积分
4300
发表于 2022-8-16 08:25:10 | 显示全部楼层
还有没有别的资源,多分享些
回复 支持 反对

使用道具 举报

0

主题

8

帖子

40

积分

新手上路

Rank: 1

积分
40
发表于 2022-8-16 10:59:03 | 显示全部楼层
好,试试效果
回复 支持 反对

使用道具 举报

0

主题

3

帖子

12

积分

新手上路

Rank: 1

积分
12
发表于 2022-8-17 01:22:28 来自手机 | 显示全部楼层
棒棒的
回复

使用道具 举报

1

主题

1650

帖子

4572

积分

4K家园VIP

Rank: 9Rank: 9Rank: 9

积分
4572
发表于 2022-8-18 12:31:21 | 显示全部楼层
众里寻他千百度,蓦然回首在这里!
回复 支持 反对

使用道具 举报

2

主题

1431

帖子

4266

积分

4K家园VIP

Rank: 9Rank: 9Rank: 9

积分
4266
发表于 2022-8-18 17:31:12 | 显示全部楼层
楼主这资源不错,我收藏了
回复 支持 反对

使用道具 举报

0

主题

29

帖子

56

积分

新手上路

Rank: 1

积分
56
发表于 2022-8-19 10:59:52 | 显示全部楼层
有味道了哈哈
回复 支持 反对

使用道具 举报

您需要登录后才可以回帖 登录 | 立即注册

本版积分规则

精彩图文
Archiver|手机版|TAG|Sitemap|新帖|专题|联系我们:邮箱: 4kjia.com@gmail.com   

4k家园   ©2019