[国家地理] [4K国家地理] 飞行拍摄中的冰岛 (2021) [2160P/MKV/379MB]

[复制链接]

2856

主题

3223

帖子

2万

积分

超级版主

Rank: 8Rank: 8

积分
27260
 楼主| 发表于 2022-8-31 10:31:30 | 显示全部楼层 |阅读模式

冰岛自上而下(379GB) (2021) WEBRip 2160p.mkv_20220803_105820.905.jpg 冰岛自上而下(379GB) (2021) WEBRip 2160p.mkv_20220803_105828.976.jpg 冰岛自上而下(379GB) (2021) WEBRip 2160p.mkv_20220803_105836.329.jpg 冰岛自上而下(379GB) (2021) WEBRip 2160p.mkv_20220803_105846.848.jpg 冰岛自上而下(379GB) (2021) WEBRip 2160p.mkv_20220803_105905.168.jpg 冰岛自上而下(379GB) (2021) WEBRip 2160p.mkv_20220803_105918.672.jpg

影片信息
片名:飞行拍摄中的冰岛
上映年份: 2021
国家:冰岛
时长: 00 : 02 : 02
类型: 物种
导演: Artur Tomal

影片简介:

        鸟瞰冰岛。

Video
ID                             : 1
Format                         : VP9
Codec ID                       : V_VP9
Duration                       : 2 min 2 s
Bit rate                       : 25.9 Mb/s
Width                          : 3 840 pixels
Height                         : 2 160 pixels
Display aspect ratio           : 16:9
Frame rate mode                : Constant
Frame rate                     : 59.940 FPS
Color space                    : YUV
Bits/(Pixel*Frame)             : 0.052
Stream size                    : 378 MiB (99%)
Default                        : Yes
Forced                         : No
Color range                    : Limited
Color primaries                : BT.709
Transfer characteristics       : BT.709
Matrix coefficients            : BT.709

Audio
ID                             : 2
Format                         : AAC LC
Format/Info                    : Advanced Audio Codec Low Complexity
Codec ID                       : A_AAC-2
Duration                       : 2 min 2 s
Bit rate                       : 128 kb/s
Channel(s)                     : 2 channels
Channel layout                 : L R
Sampling rate                  : 44.1 kHz
Frame rate                     : 43.066 FPS (1024 SPF)
Compression mode               : Lossy
Stream size                    : 1.87 MiB (0%)
Default                        : Yes
Forced                         : No
下载地址:

游客,如果您要查看本帖隐藏内容请回复






上一篇:[4K国家地理] 波士顿的秋冬美景 (2020) [2160P/MKV/236MB]
下一篇:[4K国家地理] 北德莱尔--汉堡 (2021) [2160P/MKV/355MB]
回复

使用道具 举报

2

主题

1404

帖子

4236

积分

4K家园VIP

Rank: 9Rank: 9Rank: 9

积分
4236
发表于 2022-8-31 10:31:34 | 显示全部楼层
确实不错,顶先
回复 支持 反对

使用道具 举报

0

主题

8663

帖子

2万

积分

4K家园VIP

Rank: 9Rank: 9Rank: 9

积分
20189
发表于 2022-8-31 11:27:36 | 显示全部楼层
飛行拍攝中的冰島4k
回复 支持 反对

使用道具 举报

0

主题

7

帖子

52

积分

新手上路

Rank: 1

积分
52
发表于 2022-8-31 14:48:02 | 显示全部楼层
回复

使用道具 举报

0

主题

1

帖子

6

积分

新手上路

Rank: 1

积分
6
发表于 2022-8-31 15:46:50 | 显示全部楼层
新人,试试水
回复 支持 反对

使用道具 举报

0

主题

13

帖子

52

积分

新手上路

Rank: 1

积分
52
发表于 2022-8-31 18:33:14 | 显示全部楼层
感谢分享
回复

使用道具 举报

0

主题

1

帖子

10

积分

新手上路

Rank: 1

积分
10
发表于 2022-8-31 20:39:32 | 显示全部楼层
看看这个下载欣赏
回复 支持 反对

使用道具 举报

0

主题

13

帖子

28

积分

新手上路

Rank: 1

积分
28
发表于 2022-9-1 11:51:07 | 显示全部楼层
感謝作者的供獻
回复 支持 反对

使用道具 举报

0

主题

16

帖子

49

积分

新手上路

Rank: 1

积分
49
发表于 2022-9-1 16:45:40 | 显示全部楼层
QQWWQ
回复

使用道具 举报

0

主题

2

帖子

22

积分

4K家园VIP

Rank: 9Rank: 9Rank: 9

积分
22
发表于 2022-9-1 22:59:34 | 显示全部楼层
真的很不错
回复 支持 反对

使用道具 举报

您需要登录后才可以回帖 登录 | 立即注册

本版积分规则

精彩图文
Archiver|手机版|TAG|Sitemap|新帖|专题|联系我们:邮箱: 4kjia.com@gmail.com   

4k家园   ©2019