[国家地理] [4K国家地理] 北德莱尔--汉堡 (2021) [2160P/MKV/355MB]

[复制链接]

2856

主题

3223

帖子

2万

积分

超级版主

Rank: 8Rank: 8

积分
27260
 楼主| 发表于 2022-9-18 21:24:42 | 显示全部楼层 |阅读模式

北德莱尔。汉堡(355MB) (2021) WEBRip 2160p.mkv_20220803_110544.377.jpg 北德莱尔。汉堡(355MB) (2021) WEBRip 2160p.mkv_20220803_110600.433.jpg 北德莱尔。汉堡(355MB) (2021) WEBRip 2160p.mkv_20220803_110619.576.jpg 北德莱尔。汉堡(355MB) (2021) WEBRip 2160p.mkv_20220803_110625.921.jpg 北德莱尔。汉堡(355MB) (2021) WEBRip 2160p.mkv_20220803_110649.576.jpg 北德莱尔。汉堡(355MB) (2021) WEBRip 2160p.mkv_20220803_110655.592.jpg

影片
名称:北德莱尔--汉堡
上映时间: 2021 年
国家:德国
时间: 0点02分16秒
类型: 物种

关于电影:

        2021 年初汉堡的几个印象。

Video
ID                             : 1
Format                         : AVC
Format/Info                    : Advanced Video Codec
Format profile                 : High@L5.2
Format settings                : CABAC / 5 Ref Frames
Format settings, CABAC         : Yes
Format settings, Reference fra : 5 frames
Codec ID                       : V_MPEG4/ISO/AVC
Duration                       : 2 min 16 s
Bit rate                       : 21.6 Mb/s
Width                          : 3 840 pixels
Height                         : 1 634 pixels
Display aspect ratio           : 2.35:1
Frame rate mode                : Constant
Frame rate                     : 25.000 FPS
Color space                    : YUV
Chroma subsampling             : 4:2:0
Bit depth                      : 8 bits
Scan type                      : Progressive
Bits/(Pixel*Frame)             : 0.138
Stream size                    : 351 MiB (99%)
Writing library                : x264 core 164 r10 ae03D92
Encoding settings              : cabac=1 / ref=5 / deblock=1:0:0 / analyse=0x3:0x113 / me=hex / subme=8 / psy=1 / psy_rd=1.00:0.00 / mixed_ref=1 / me_range=16 / chroma_me=1 / trellis=2 / 8x8dct=1 / cqm=0 / deadzone=21,11 / fast_pskip=1 / chroma_qp_offset=-2 / threads=48 / lookahead_threads=8 / sliced_threads=0 / nr=0 / decimate=1 / interlaced=0 / bluray_compat=0 / stitchable=1 / constrained_intra=0 / bframes=3 / b_pyramid=2 / b_adapt=2 / b_bias=0 / direct=3 / weightb=1 / open_gop=0 / weightp=2 / keyint=infinite / keyint_min=25 / scenecut=40 / intra_refresh=0 / rc_lookahead=50 / rc=crf / mbtree=1 / crf=20.0 / qcomp=0.60 / qpmin=5 / qpmax=69 / qpstep=4 / vbv_maxrate=24200 / vbv_bufsize=66000 / crf_max=0.0 / nal_hrd=none / filler=0 / ip_ratio=1.40 / aq=1:1.00
Default                        : Yes
Forced                         : No
Color range                    : Limited
Color primaries                : BT.709
Transfer characteristics       : BT.709
Matrix coefficients            : BT.709

Audio
ID                             : 2
Format                         : AAC LC
Format/Info                    : Advanced Audio Codec Low Complexity
Codec ID                       : A_AAC-2
Duration                       : 2 min 16 s
Bit rate                       : 253 kb/s
Channel(s)                     : 2 channels
Channel layout                 : L R
Sampling rate                  : 48.0 kHz
Frame rate                     : 46.875 FPS (1024 SPF)
Compression mode               : Lossy
Delay relative to video        : -80 ms
Stream size                    : 4.11 MiB (1%)
Default                        : Yes
Forced                         : No


下载地址:

游客,如果您要查看本帖隐藏内容请回复







上一篇:[4K国家地理] 飞行拍摄中的冰岛 (2021) [2160P/MKV/379MB]
下一篇:[4K国家地理] 巴基斯坦风景线 (2021) [2160P/MKV/239MB]
回复

使用道具 举报

56

主题

1560

帖子

4564

积分

4K家园VIP

Rank: 9Rank: 9Rank: 9

积分
4564
发表于 2022-9-18 21:24:48 | 显示全部楼层
我只是看看啊,不说话
回复 支持 反对

使用道具 举报

0

主题

8663

帖子

2万

积分

4K家园VIP

Rank: 9Rank: 9Rank: 9

积分
20189
发表于 2022-9-18 23:12:56 | 显示全部楼层
太好啦&萬分感謝版主的無私發佈分享%
回复 支持 反对

使用道具 举报

0

主题

1565

帖子

5363

积分

高级会员

Rank: 3Rank: 3

积分
5363
发表于 2022-9-19 09:35:05 | 显示全部楼层
谢楼主分享。
回复 支持 反对

使用道具 举报

2

主题

264

帖子

3278

积分

中级会员

Rank: 4

积分
3278
发表于 2022-9-19 10:01:41 | 显示全部楼层
两岸边上好风景         
回复 支持 反对

使用道具 举报

0

主题

13

帖子

33

积分

新手上路

Rank: 1

积分
33
发表于 2022-9-19 17:44:58 | 显示全部楼层
DSGFDGDFHDF
回复 支持 反对

使用道具 举报

0

主题

1

帖子

6

积分

新手上路

Rank: 1

积分
6
发表于 2022-9-20 06:57:19 来自手机 | 显示全部楼层
只是看看啊,不说
回复 支持 反对

使用道具 举报

62

主题

1616

帖子

4684

积分

4K家园VIP

Rank: 9Rank: 9Rank: 9

积分
4684
发表于 2022-9-25 22:42:12 来自手机 | 显示全部楼层
有空一起交流一下
回复 支持 反对

使用道具 举报

0

主题

1

帖子

10

积分

新手上路

Rank: 1

积分
10
发表于 7 天前 | 显示全部楼层
感谢楼主分享~
回复 支持 反对

使用道具 举报

22

主题

1234

帖子

3692

积分

4K家园VIP

Rank: 9Rank: 9Rank: 9

积分
3692
发表于 4 天前 来自手机 | 显示全部楼层
支持一下楼主,顶起来
回复 支持 反对

使用道具 举报

您需要登录后才可以回帖 登录 | 立即注册

本版积分规则

精彩图文
Archiver|手机版|TAG|Sitemap|新帖|专题|联系我们:邮箱: 4kjia.com@gmail.com   

4k家园   ©2019