[国家地理] [4K国家地理] 多洛米蒂山 (2021) [2160P/MKV/326MB]

  [复制链接]

主题

帖子

0

积分

超级版主

Rank: 8Rank: 8

积分
0
 楼主| 发表于 2022-10-5 21:00:55 | 显示全部楼层 |阅读模式

多洛米蒂山(326MB)(2021) WEBRip 2160p.mkv_20220803_111418.306.jpg 多洛米蒂山(326MB)(2021) WEBRip 2160p.mkv_20220803_111436.584.jpg 多洛米蒂山(326MB)(2021) WEBRip 2160p.mkv_20220803_111441.713.jpg 多洛米蒂山(326MB)(2021) WEBRip 2160p.mkv_20220803_111449.504.jpg 多洛米蒂山(326MB)(2021) WEBRip 2160p.mkv_20220803_111507.081.jpg 多洛米蒂山(326MB)(2021) WEBRip 2160p.mkv_20220803_111512.953.jpg

影片信息
片名:多洛米蒂山
上映年份: 2021
国家:意大利
持续时间: 00 : 03 : 14
类型: 物种
导演:埃利斯·范杰森

影片介绍:

         委内瑞拉之行后,我和朋友朱利安一起去了多洛米蒂山,除了天气恶劣,我们度过了愉快的时光和电影条件... 我想从一个新的角度展示白云岩,希望你喜欢它!

Video
ID                             : 1
Format                         : VP9
Codec ID                       : V_VP9
Duration                       : 3 min 14 s
Bit rate                       : 13.9 Mb/s
Width                          : 3 840 pixels
Height                         : 2 160 pixels
Display aspect ratio           : 16:9
Frame rate mode                : Constant
Frame rate                     : 29.970 FPS
Color space                    : YUV
Bits/(Pixel*Frame)             : 0.056
Stream size                    : 323 MiB (99%)
Default                        : Yes
Forced                         : No
Color range                    : Limited
Color primaries                : BT.709
Transfer characteristics       : BT.709
Matrix coefficients            : BT.709

Audio
ID                             : 2
Format                         : Opus
Codec ID                       : A_OPUS
Duration                       : 3 min 14 s
Bit rate                       : 136 kb/s
Channel(s)                     : 2 channels
Channel layout                 : L R
Sampling rate                  : 48.0 kHz
Frame rate                     : 50.001 FPS (960 SPF)
Bit depth                      : 32 bits
Compression mode               : Lossy
Stream size                    : 3.16 MiB (1%)
Default                        : Yes
Forced                         : No
下载地址:

游客,如果您要查看本帖隐藏内容请回复







上一篇:[4K国家地理] 北德莱尔--汉堡 (2021) [2160P/MKV/355MB]
下一篇:[4K国家地理] 巴基斯坦风景线 (2021) [2160P/MKV/239MB]
回复

使用道具 举报

52

主题

1521

帖子

4393

积分

4K家园VIP

Rank: 9Rank: 9Rank: 9

积分
4393
发表于 2022-10-5 21:00:59 | 显示全部楼层
我只是看看啊,不说话
回复 支持 反对

使用道具 举报

主题

帖子

0

积分

4K家园VIP

Rank: 9Rank: 9Rank: 9

积分
0
发表于 2022-10-5 21:20:12 | 显示全部楼层
意大利多洛米蒂山4k
回复 支持 反对

使用道具 举报

主题

帖子

12

积分

新手上路

Rank: 1

积分
12
发表于 2022-10-6 00:09:29 | 显示全部楼层
爬楼
回复

使用道具 举报

主题

帖子

10

积分

新手上路

Rank: 1

积分
10
发表于 2022-10-6 11:33:18 | 显示全部楼层
好美的风景
回复 支持 反对

使用道具 举报

主题

帖子

12

积分

新手上路

Rank: 1

积分
12
发表于 2022-10-6 16:45:18 | 显示全部楼层
你好澳甲
回复

使用道具 举报

40

主题

1544

帖子

4448

积分

4K家园VIP

Rank: 9Rank: 9Rank: 9

积分
4448
发表于 2022-10-6 17:41:55 | 显示全部楼层
前排顶起
回复 支持 反对

使用道具 举报

主题

帖子

70

积分

新手上路

Rank: 1

积分
70
发表于 2022-10-7 10:47:09 | 显示全部楼层
好资源
回复

使用道具 举报

主题

帖子

6

积分

新手上路

Rank: 1

积分
6
发表于 2022-10-7 13:21:14 | 显示全部楼层
好美的风景
回复 支持 反对

使用道具 举报

38

主题

1538

帖子

4432

积分

4K家园VIP

Rank: 9Rank: 9Rank: 9

积分
4432
发表于 2022-10-8 17:01:22 来自手机 | 显示全部楼层
呵呵。。。
回复 支持 反对

使用道具 举报

您需要登录后才可以回帖 登录 | 立即注册

本版积分规则

精彩图文
Archiver|手机版|TAG|Sitemap|新帖|专题|联系我们:邮箱: 4kjia.com@gmail.com   

4k家园   ©2019