[国家地理] [4K国家地理] 巴基斯坦风景线 (2021) [2160P/MKV/239MB]

[复制链接]

2823

主题

3186

帖子

2万

积分

超级版主

Rank: 8Rank: 8

积分
26842
 楼主| 发表于 2022-8-3 11:25:55 | 显示全部楼层 |阅读模式

巴基斯坦自上而下(239MB) (2021) WEBRip 2160p.mkv_20220803_112106.224.jpg 巴基斯坦自上而下(239MB) (2021) WEBRip 2160p.mkv_20220803_112136.720.jpg 巴基斯坦自上而下(239MB) (2021) WEBRip 2160p.mkv_20220803_112144.921.jpg 巴基斯坦自上而下(239MB) (2021) WEBRip 2160p.mkv_20220803_112152.033.jpg 巴基斯坦自上而下(239MB) (2021) WEBRip 2160p.mkv_20220803_112207.777.jpg 巴基斯坦自上而下(239MB) (2021) WEBRip 2160p.mkv_20220803_112216.161.jpg 巴基斯坦自上而下(239MB) (2021) WEBRip 2160p.mkv_20220803_112233.257.jpg 巴基斯坦自上而下(239MB) (2021) WEBRip 2160p.mkv_20220803_112243.361.jpg

关于信息
巴基斯坦风景线
发行时间: 2021
国家:巴基斯坦
时长: 00 : 02 : 53
类型: 种
导演: Humzah Faizan

关于影片:

        巴基斯坦是南亚的状态。

Video
ID                             : 1
Format                         : VP9
Codec ID                       : V_VP9
Duration                       : 2 min 53 s
Bit rate                       : 11.5 Mb/s
Width                          : 3 840 pixels
Height                         : 1 634 pixels
Display aspect ratio           : 2.35:1
Frame rate mode                : Constant
Frame rate                     : 23.976 (24000/1001) FPS
Color space                    : YUV
Bits/(Pixel*Frame)             : 0.076
Stream size                    : 237 MiB (99%)
Default                        : Yes
Forced                         : No
Color range                    : Limited
Color primaries                : BT.709
Transfer characteristics       : BT.709
Matrix coefficients            : BT.709

Audio
ID                             : 2
Format                         : Opus
Codec ID                       : A_OPUS
Duration                       : 2 min 53 s
Bit rate                       : 129 kb/s
Channel(s)                     : 2 channels
Channel layout                 : L R
Sampling rate                  : 48.0 kHz
Frame rate                     : 50.003 FPS (960 SPF)
Bit depth                      : 32 bits
Compression mode               : Lossy
Stream size                    : 2.67 MiB (1%)
Default                        : Yes
Forced                         : No
下载地址:

游客,如果您要查看本帖隐藏内容请回复





上一篇:[4K国家地理] 意大利国家公园-大天堂 (2021) [2160P/MKV/371MB]
回复

使用道具 举报

50

主题

1465

帖子

4205

积分

4K家园VIP

Rank: 9Rank: 9Rank: 9

积分
4205
发表于 2022-8-3 11:26:02 | 显示全部楼层
我也来顶一下..
回复 支持 反对

使用道具 举报

0

主题

8321

帖子

1万

积分

4K家园VIP

Rank: 9Rank: 9Rank: 9

积分
19318
发表于 2022-8-3 12:14:57 | 显示全部楼层
巴基斯坦風景線4k
回复 支持 反对

使用道具 举报

1

主题

1385

帖子

4175

积分

4K家园VIP

Rank: 9Rank: 9Rank: 9

积分
4175
发表于 2022-8-3 12:27:09 | 显示全部楼层
正需要
回复 支持 反对

使用道具 举报

0

主题

1346

帖子

4040

积分

4K家园VIP

Rank: 9Rank: 9Rank: 9

积分
4040
发表于 2022-8-3 12:29:08 | 显示全部楼层
什么东西啊
回复 支持 反对

使用道具 举报

2

主题

1656

帖子

4510

积分

4K家园VIP

Rank: 9Rank: 9Rank: 9

积分
4510
发表于 2022-8-3 12:35:32 | 显示全部楼层
元芳你怎么看?
回复 支持 反对

使用道具 举报

1

主题

1511

帖子

4383

积分

4K家园VIP

Rank: 9Rank: 9Rank: 9

积分
4383
发表于 2022-8-3 13:23:27 | 显示全部楼层
支持支持再支持
回复 支持 反对

使用道具 举报

0

主题

3

帖子

21

积分

新手上路

Rank: 1

积分
21
发表于 2022-8-3 14:54:26 | 显示全部楼层
没想到在这里看到了这个。赞!
回复 支持 反对

使用道具 举报

0

主题

2

帖子

16

积分

新手上路

Rank: 1

积分
16
发表于 2022-8-3 15:21:27 | 显示全部楼层
顶一下
回复

使用道具 举报

0

主题

5

帖子

28

积分

新手上路

Rank: 1

积分
28
发表于 2022-8-3 16:10:35 | 显示全部楼层
也来顶一下
回复 支持 反对

使用道具 举报

您需要登录后才可以回帖 登录 | 立即注册

本版积分规则

精彩图文
Archiver|手机版|TAG|Sitemap|新帖|专题|联系我们:邮箱: 4kjia.com@gmail.com   

4k家园   ©2019