[国家地理] [4K国家地理] 阿拉斯加 - “航行内通道” (2021) [2160P/MKV652MB]

[复制链接]

2856

主题

3223

帖子

2万

积分

超级版主

Rank: 8Rank: 8

积分
27260
 楼主| 发表于 2022-9-4 17:48:46 | 显示全部楼层 |阅读模式

阿拉斯加 - “航行内通道”(2021)WEBRip 2160p.mkv_20220803_113301.697.jpg 阿拉斯加 - “航行内通道”(2021)WEBRip 2160p.mkv_20220803_113317.074.jpg 阿拉斯加 - “航行内通道”(2021)WEBRip 2160p.mkv_20220803_113325.664.jpg 阿拉斯加 - “航行内通道”(2021)WEBRip 2160p.mkv_20220803_113332.865.jpg 阿拉斯加 - “航行内通道”(2021)WEBRip 2160p.mkv_20220803_113342.001.jpg 阿拉斯加 - “航行内通道”(2021)WEBRip 2160p.mkv_20220803_113354.065.jpg

影片简介
片名:阿拉斯加-《内航道》
上映年份: 2021
国家:美国
时长: 00 : 03 : 47
类型: 风景
导演:乔·西蒙

影片简介:

         4位朋友踏上史诗般的帆船之旅,开启难忘的冒险之旅。

Video
ID                             : 1
Format                         : AVC
Format/Info                    : Advanced Video Codec
Format profile                 : High@L5.2
Format settings                : CABAC / 5 Ref Frames
Format settings, CABAC         : Yes
Format settings, Reference fra : 5 frames
Codec ID                       : V_MPEG4/ISO/AVC
Duration                       : 3 min 47 s
Bit rate                       : 23.8 Mb/s
Width                          : 3 840 pixels
Height                         : 2 160 pixels
Display aspect ratio           : 16:9
Frame rate mode                : Constant
Frame rate                     : 23.976 (24000/1001) FPS
Color space                    : YUV
Chroma subsampling             : 4:2:0
Bit depth                      : 8 bits
Scan type                      : Progressive
Bits/(Pixel*Frame)             : 0.120
Stream size                    : 646 MiB (99%)
Writing library                : x264 core 164 r10 ae03D92
Encoding settings              : cabac=1 / ref=5 / deblock=1:0:0 / analyse=0x3:0x113 / me=hex / subme=8 / psy=1 / psy_rd=1.00:0.00 / mixed_ref=1 / me_range=16 / chroma_me=1 / trellis=2 / 8x8dct=1 / cqm=0 / deadzone=21,11 / fast_pskip=1 / chroma_qp_offset=-2 / threads=48 / lookahead_threads=8 / sliced_threads=0 / nr=0 / decimate=1 / interlaced=0 / bluray_compat=0 / stitchable=1 / constrained_intra=0 / bframes=3 / b_pyramid=2 / b_adapt=2 / b_bias=0 / direct=3 / weightb=1 / open_gop=0 / weightp=2 / keyint=infinite / keyint_min=23 / scenecut=40 / intra_refresh=0 / rc_lookahead=50 / rc=crf / mbtree=1 / crf=20.0 / qcomp=0.60 / qpmin=5 / qpmax=69 / qpstep=4 / vbv_maxrate=24200 / vbv_bufsize=66000 / crf_max=0.0 / nal_hrd=none / filler=0 / ip_ratio=1.40 / aq=1:1.00
Default                        : Yes
Forced                         : No
Color range                    : Limited
Color primaries                : BT.709
Transfer characteristics       : BT.709
Matrix coefficients            : BT.709

Audio
ID                             : 2
Format                         : AAC LC
Format/Info                    : Advanced Audio Codec Low Complexity
Codec ID                       : A_AAC-2
Duration                       : 3 min 47 s
Bit rate                       : 253 kb/s
Channel(s)                     : 2 channels
Channel layout                 : L R
Sampling rate                  : 48.0 kHz
Frame rate                     : 46.875 FPS (1024 SPF)
Compression mode               : Lossy
Delay relative to video        : -83 ms
Stream size                    : 6.88 MiB (1%)
Default                        : Yes
Forced                         : No
下载地址:

游客,如果您要查看本帖隐藏内容请回复





上一篇:[4K国家地理] 奥列石要塞 (2021) [2160P/MKV/354MB]
下一篇:2018 韩国斯波克斯健身NABBA经典S小姐-S健身小姐颁奖
回复

使用道具 举报

1

主题

1404

帖子

4048

积分

4K家园VIP

Rank: 9Rank: 9Rank: 9

积分
4048
发表于 2022-9-4 17:48:50 | 显示全部楼层
元芳你怎么看?
回复 支持 反对

使用道具 举报

0

主题

8663

帖子

2万

积分

4K家园VIP

Rank: 9Rank: 9Rank: 9

积分
20189
发表于 2022-9-4 18:55:04 | 显示全部楼层
阿拉斯加航★行内通道4k
回复 支持 反对

使用道具 举报

0

主题

1

帖子

6

积分

新手上路

Rank: 1

积分
6
发表于 2022-9-4 19:12:03 | 显示全部楼层
新人报道
回复

使用道具 举报

0

主题

3

帖子

15

积分

新手上路

Rank: 1

积分
15
发表于 2022-9-4 20:52:12 | 显示全部楼层
感谢楼主
回复

使用道具 举报

0

主题

3

帖子

19

积分

新手上路

Rank: 1

积分
19
发表于 2022-9-5 09:46:47 | 显示全部楼层
谢谢楼主分享
回复 支持 反对

使用道具 举报

0

主题

1

帖子

6

积分

新手上路

Rank: 1

积分
6
发表于 2022-9-5 11:20:10 | 显示全部楼层
好资源 谢谢
回复 支持 反对

使用道具 举报

0

主题

24

帖子

58

积分

新手上路

Rank: 1

积分
58
发表于 2022-9-5 17:46:53 | 显示全部楼层

阿拉斯加航★行内通道4k
回复 支持 反对

使用道具 举报

53

主题

1253

帖子

3827

积分

4K家园VIP

Rank: 9Rank: 9Rank: 9

积分
3827
发表于 2022-9-5 23:56:58 来自手机 | 显示全部楼层
向楼主学习
回复 支持 反对

使用道具 举报

0

主题

107

帖子

645

积分

新手上路

Rank: 1

积分
645
发表于 2022-9-7 08:32:34 | 显示全部楼层
谢楼主分享
回复 支持 反对

使用道具 举报

您需要登录后才可以回帖 登录 | 立即注册

本版积分规则

精彩图文
Archiver|手机版|TAG|Sitemap|新帖|专题|联系我们:邮箱: 4kjia.com@gmail.com   

4k家园   ©2019