雪国列车(剧版)[简繁中字](2020)第一至三季全/4K高清版本下载

[复制链接]

188

主题

211

帖子

2061

积分

版主

Rank: 7Rank: 7Rank: 7

积分
2061
 楼主| 发表于 7 天前 | 显示全部楼层 |阅读模式
12c49bc8b1e443f8cae0e82f97371ccf_副本.jpg

◎标  题 雪国列车(剧版) 第一季
◎译  名 末日列车
◎年  代 2020
◎产  地 美国
◎类  别 剧情 / 动作 / 科幻 / 惊悚
◎语  言 英语
◎IMDb评分 8.2/10 from 463411 users
◎IMDb链接 https://www.imdb.com/title/tt6156584/
◎豆瓣评分 7.1/10 from 8415 users
◎豆瓣链接 https://movie.douban.com/subject/26919579/
◎导  演 詹姆斯·哈维斯 James Hawes / 萨姆·米勒 Sam Miller / 海伦·谢费 Helen Shaver / 弗雷德·托耶 Fred Toye / 埃弗拉多·瓦莱里奥·古特 Everardo Valerio Gout
◎编  剧 格雷姆·曼森 Graeme Manson / 乔什·弗莱德曼 Josh Friedman / 伊拉姆·马丁内斯 Hiram Martinez / 莉齐·米克瑞 Lizzie Mickery / 雅克·罗布 Jacques Lob / 让-马克·罗切特 Jean-Marc Rochette / 本杰明·罗格朗 Benjamin Legrand / 奉俊昊 Joon-ho Bong / 凯利·玛斯特森 Kelly Masterson / 唐纳德·左 Donald Joh
◎演  员 詹妮弗·康纳利 Jennifer Connelly
       戴维德·迪格斯 Daveed Diggs
       米奇·萨姆纳 Mickey Sumner
       艾莉森·赖特 Alison Wright
       伊多·戈德堡 Iddo Goldberg
       苏珊·朴 Susan Park
       凯蒂·麦吉尼斯 Katie McGuinness
       山姆·奥图 Sam Otto
       希拉·凡德 Sheila Vand
       迈克·奥麦利 Mike O'Malley
       安娜丽丝·巴索 Annalise Basso
       杰琳·弗莱彻 Jaylin Fletcher
       凯莉·奥马利 Kerry O'Malley
       亚伦·格伦尼 Aaron Glenane
       海皮·安德森 Happy Anderson
       乔纳森·沃克 Jonathan Walker
       蒂莫西·V·墨菲 Timothy V Murphy
       马诺·苏德 Manoj Sood
       卡琳·考诺娃 Karin Konoval
       罗伯托厄宾纳 Roberto Urbina
       迪兰·施密德 Dylan Schmid
       斯蒂芬·罗波 Stephen Lobo
       加里·海瑟林顿 Gary Hetherington
       简·迈克格雷格 Jane McGregor
       肖恩·托布 Shaun Toub
       阿曼达·布鲁盖尔 Amanda Brugel
       玛德琳娜·亚瑟 Madeleine Arthur
       莎拉·斯特兰奇 Sarah Strange
       威廉·斯坦福德·戴维斯 William Stanford Davis
       西蒙·钱 Simon Chin
       史蒂文·奥格 Steven Ogg
       曹益吉 Yee Jee Tso
       耶尔·雅曼 Yael Yurman
       多隆·贝尔 Doron Bell
       肖恩·宾 Sean Bean
       埃莉·哈维 Ellie Harvie
       罗宾·薇格特 Robin Weigert
       瑞安·罗宾斯 Ryan Robbins
       萨沙·弗若洛娃 Sasha Frolova
       神奈川宏幸 Hiro Kanagawa
       艾米莉· 斯凯格斯 Emily Skeggs
       马特雷亚·费德尔 Matreya Fedor
       本杰明·海格 Benjamin Haigh
       阿诺德·平诺克 Arnold Pinnock
       莉娜·霍尔 Lena Hall


◎简  介


    在这部未来惊悚片,世界成为一片冰冻的荒芜之地。残存的人类居住在一列巨型列车上,永无止尽地绕行全球。

Video
ID : 1
Format : HEVC
Format/Info : High Efficiency Video Coding
Format profile : Main 10@L5@Main
HDR format : Dolby Vision, Version 1.0, dvhe.08.06, BL+RPU, HDR10 compatible / SMPTE ST 2086, HDR10 compatible
Codec ID : V_MPEGH/ISO/HEVC
Duration : 51 min 43 s
Bit rate : 15.8 Mb/s
Width : 3 840 pixels
Height : 2 160 pixels
Display aspect ratio : 16:9
Frame rate mode : Constant
Frame rate : 23.976 (24000/1001) FPS
Color space : YUV
Chroma subsampling : 4:2:0 (Type 2)
Bit depth : 10 bits
Bits/(Pixel*Frame) : 0.080
Stream size : 5.72 GiB (95%)
Default : Yes
Forced : No
Color range : Limited
Color primaries : BT.2020
Transfer characteristics : PQ
Matrix coefficients : BT.2020 non-constant
Mastering display color primaries : Display P3
Mastering display luminance : min: 0.0001 cd/m2, max: 1000 cd/m2
Maximum Content Light Level : 1301 cd/m2
Maximum Frame-Average Light Level : 925 cd/m2

Audio
ID : 2
Format : E-AC-3 JOC
Format/Info : Enhanced AC-3 with Joint Object Coding
Commercial name : Dolby Digital Plus with Dolby Atmos
Codec ID : A_EAC3
Duration : 51 min 43 s
Bit rate mode : Constant
Bit rate : 768 kb/s
Channel(s) : 6 channels
Channel layout : L R C LFE Ls Rs
Sampling rate : 48.0 kHz
Frame rate : 31.250 FPS (1536 SPF)
Compression mode : Lossy
Stream size : 284 MiB (5%)
Language : English
Service kind : Complete Main
Default : Yes
Forced : No
Complexity index : 16
Number of dynamic objects : 15
Bed channel count : 1 channel
Bed channel configuration : LFE

Text #1
ID : 3
Format : UTF-8
Codec ID : S_TEXT/UTF8
Codec ID/Info : UTF-8 Plain Text
Duration : 50 min 25 s
Bit rate : 59 b/s
Frame rate : 0.205 FPS
Count of elements : 621
Stream size : 21.8 KiB (0%)
Language : English
Default : No
Forced : No

Text #2
ID : 4
Format : UTF-8
Codec ID : S_TEXT/UTF8
Codec ID/Info : UTF-8 Plain Text
Duration : 50 min 50 s
Bit rate : 68 b/s
Frame rate : 0.240 FPS
Count of elements : 732
Stream size : 25.6 KiB (0%)
Title : SDH
Language : English
Default : No
Forced : No

Text #3
ID : 5
Format : UTF-8
Codec ID : S_TEXT/UTF8
Codec ID/Info : UTF-8 Plain Text
Duration : 51 min 22 s
Bit rate : 95 b/s
Frame rate : 0.201 FPS
Count of elements : 620
Stream size : 35.7 KiB (0%)
Language : Arabic
Default : No
Forced : No

Text #4
ID : 6
Format : UTF-8
Codec ID : S_TEXT/UTF8
Codec ID/Info : UTF-8 Plain Text
Duration : 51 min 22 s
Bit rate : 62 b/s
Frame rate : 0.201 FPS
Count of elements : 620
Stream size : 23.6 KiB (0%)
Title : 简体
Language : 中文
Default : No
Forced : No

Text #5
ID : 7
Format : UTF-8
Codec ID : S_TEXT/UTF8
Codec ID/Info : UTF-8 Plain Text
Duration : 51 min 22 s
Bit rate : 52 b/s
Frame rate : 0.201 FPS
Count of elements : 620
Stream size : 19.8 KiB (0%)
Title : 繁体
Language : 中文
Default : No
Forced : No


Text #6
ID : 8
Format : UTF-8
Codec ID : S_TEXT/UTF8
Codec ID/Info : UTF-8 Plain Text
Duration : 51 min 24 s
Bit rate : 49 b/s
Frame rate : 0.187 FPS
Count of elements : 577
Stream size : 18.6 KiB (0%)
Language : Croatian
Default : No
Forced : No

Text #7
ID : 9
Format : UTF-8
Codec ID : S_TEXT/UTF8
Codec ID/Info : UTF-8 Plain Text
Duration : 51 min 22 s
Bit rate : 52 b/s
Frame rate : 0.201 FPS
Count of elements : 620
Stream size : 19.9 KiB (0%)
Language : Czech
Default : No
Forced : No

Text #8
ID : 10
Format : UTF-8
Codec ID : S_TEXT/UTF8
Codec ID/Info : UTF-8 Plain Text
Duration : 51 min 22 s
Bit rate : 49 b/s
Frame rate : 0.200 FPS
Count of elements : 618
Stream size : 18.7 KiB (0%)
Language : Danish
Default : No
Forced : No

Text #9
ID : 11
Format : UTF-8
Codec ID : S_TEXT/UTF8
Codec ID/Info : UTF-8 Plain Text
Duration : 51 min 22 s
Bit rate : 50 b/s
Frame rate : 0.195 FPS
Count of elements : 601
Stream size : 19.1 KiB (0%)
Language : Dutch
Default : No
Forced : No

Text #10
ID : 12
Format : UTF-8
Codec ID : S_TEXT/UTF8
Codec ID/Info : UTF-8 Plain Text
Duration : 51 min 22 s
Bit rate : 50 b/s
Frame rate : 0.196 FPS
Count of elements : 604
Stream size : 19.2 KiB (0%)
Language : Finnish
Default : No
Forced : No

Text #11
ID : 13
Format : UTF-8
Codec ID : S_TEXT/UTF8
Codec ID/Info : UTF-8 Plain Text
Duration : 51 min 22 s
Bit rate : 57 b/s
Frame rate : 0.199 FPS
Count of elements : 614
Stream size : 21.6 KiB (0%)
Language : French
Default : No
Forced : No

Text #12
ID : 14
Format : UTF-8
Codec ID : S_TEXT/UTF8
Codec ID/Info : UTF-8 Plain Text
Duration : 51 min 22 s
Bit rate : 52 b/s
Frame rate : 0.201 FPS
Count of elements : 619
Stream size : 19.6 KiB (0%)
Language : German
Default : No
Forced : No

Text #13
ID : 15
Format : UTF-8
Codec ID : S_TEXT/UTF8
Codec ID/Info : UTF-8 Plain Text
Duration : 51 min 22 s
Bit rate : 92 b/s
Frame rate : 0.200 FPS
Count of elements : 616
Stream size : 34.7 KiB (0%)
Language : Greek
Default : No
Forced : No

Text #14
ID : 16
Format : UTF-8
Codec ID : S_TEXT/UTF8
Codec ID/Info : UTF-8 Plain Text
Duration : 51 min 22 s
Bit rate : 80 b/s
Frame rate : 0.201 FPS
Count of elements : 620
Stream size : 30.2 KiB (0%)
Language : Hebrew
Default : No
Forced : No

Text #15
ID : 17
Format : UTF-8
Codec ID : S_TEXT/UTF8
Codec ID/Info : UTF-8 Plain Text
Duration : 51 min 22 s
Bit rate : 139 b/s
Frame rate : 0.201 FPS
Count of elements : 620
Stream size : 52.6 KiB (0%)
Language : Hindi
Default : No
Forced : No

Text #16
ID : 18
Format : UTF-8
Codec ID : S_TEXT/UTF8
Codec ID/Info : UTF-8 Plain Text
Duration : 51 min 22 s
Bit rate : 53 b/s
Frame rate : 0.200 FPS
Count of elements : 615
Stream size : 20.2 KiB (0%)
Language : Hungarian
Default : No
Forced : No

Text #17
ID : 19
Format : UTF-8
Codec ID : S_TEXT/UTF8
Codec ID/Info : UTF-8 Plain Text
Duration : 51 min 22 s
Bit rate : 53 b/s
Frame rate : 0.201 FPS
Count of elements : 619
Stream size : 20.2 KiB (0%)
Language : Indonesian
Default : No
Forced : No

Text #18
ID : 20
Format : UTF-8
Codec ID : S_TEXT/UTF8
Codec ID/Info : UTF-8 Plain Text
Duration : 51 min 22 s
Bit rate : 55 b/s
Frame rate : 0.201 FPS
Count of elements : 619
Stream size : 21.0 KiB (0%)
Language : Italian
Default : No
Forced : No

Text #19
ID : 21
Format : UTF-8
Codec ID : S_TEXT/UTF8
Codec ID/Info : UTF-8 Plain Text
Duration : 51 min 19 s
Bit rate : 51 b/s
Frame rate : 0.206 FPS
Count of elements : 635
Stream size : 19.4 KiB (0%)
Language : Japanese
Default : No
Forced : No

Text #20
ID : 22
Format : UTF-8
Codec ID : S_TEXT/UTF8
Codec ID/Info : UTF-8 Plain Text
Duration : 51 min 22 s
Bit rate : 68 b/s
Frame rate : 0.201 FPS
Count of elements : 620
Stream size : 25.6 KiB (0%)
Language : Korean
Default : No
Forced : No

Text #21
ID : 23
Format : UTF-8
Codec ID : S_TEXT/UTF8
Codec ID/Info : UTF-8 Plain Text
Duration : 51 min 22 s
Bit rate : 59 b/s
Frame rate : 0.202 FPS
Count of elements : 622
Stream size : 22.4 KiB (0%)
Language : Malay
Default : No
Forced : No

Text #22
ID : 24
Format : UTF-8
Codec ID : S_TEXT/UTF8
Codec ID/Info : UTF-8 Plain Text
Duration : 51 min 22 s
Bit rate : 52 b/s
Frame rate : 0.201 FPS
Count of elements : 620
Stream size : 19.8 KiB (0%)
Language : Norwegian Bokmal
Default : No
Forced : No

Text #23
ID : 25
Format : UTF-8
Codec ID : S_TEXT/UTF8
Codec ID/Info : UTF-8 Plain Text
Duration : 51 min 22 s
Bit rate : 50 b/s
Frame rate : 0.197 FPS
Count of elements : 607
Stream size : 19.1 KiB (0%)
Language : Polish
Default : No
Forced : No

Text #24
ID : 26
Format : UTF-8
Codec ID : S_TEXT/UTF8
Codec ID/Info : UTF-8 Plain Text
Duration : 51 min 22 s
Bit rate : 55 b/s
Frame rate : 0.201 FPS
Count of elements : 619
Stream size : 20.7 KiB (0%)
Title : Brazilian
Language : Portuguese
Default : No
Forced : No

Text #25
ID : 27
Format : UTF-8
Codec ID : S_TEXT/UTF8
Codec ID/Info : UTF-8 Plain Text
Duration : 51 min 22 s
Bit rate : 57 b/s
Frame rate : 0.200 FPS
Count of elements : 616
Stream size : 21.6 KiB (0%)
Title : Iberian
Language : Portuguese
Default : No
Forced : No

Text #26
ID : 28
Format : UTF-8
Codec ID : S_TEXT/UTF8
Codec ID/Info : UTF-8 Plain Text
Duration : 51 min 22 s
Bit rate : 63 b/s
Frame rate : 0.200 FPS
Count of elements : 615
Stream size : 23.9 KiB (0%)
Language : Romanian
Default : No
Forced : No

Text #27
ID : 29
Format : UTF-8
Codec ID : S_TEXT/UTF8
Codec ID/Info : UTF-8 Plain Text
Duration : 51 min 22 s
Bit rate : 86 b/s
Frame rate : 0.201 FPS
Count of elements : 620
Stream size : 32.7 KiB (0%)
Language : Russian
Default : No
Forced : No

Text #28
ID : 30
Format : UTF-8
Codec ID : S_TEXT/UTF8
Codec ID/Info : UTF-8 Plain Text
Duration : 51 min 22 s
Bit rate : 57 b/s
Frame rate : 0.201 FPS
Count of elements : 619
Stream size : 21.5 KiB (0%)
Title : Castilian
Language : Spanish
Default : No
Forced : No

Text #29
ID : 31
Format : UTF-8
Codec ID : S_TEXT/UTF8
Codec ID/Info : UTF-8 Plain Text
Duration : 51 min 22 s
Bit rate : 57 b/s
Frame rate : 0.201 FPS
Count of elements : 619
Stream size : 21.7 KiB (0%)
Title : Latin American
Language : Spanish
Default : No
Forced : No

Text #30
ID : 32
Format : UTF-8
Codec ID : S_TEXT/UTF8
Codec ID/Info : UTF-8 Plain Text
Duration : 51 min 22 s
Bit rate : 53 b/s
Frame rate : 0.201 FPS
Count of elements : 619
Stream size : 20.3 KiB (0%)
Language : Swedish
Default : No
Forced : No

Text #31
ID : 33
Format : UTF-8
Codec ID : S_TEXT/UTF8
Codec ID/Info : UTF-8 Plain Text
Duration : 51 min 22 s
Bit rate : 153 b/s
Frame rate : 0.201 FPS
Count of elements : 620
Stream size : 57.9 KiB (0%)
Language : Thai
Default : No
Forced : No

Text #32
ID : 34
Format : UTF-8
Codec ID : S_TEXT/UTF8
Codec ID/Info : UTF-8 Plain Text
Duration : 51 min 22 s
Bit rate : 58 b/s
Frame rate : 0.200 FPS
Count of elements : 616
Stream size : 21.8 KiB (0%)
Language : Turkish
Default : No
Forced : No

Text #33
ID : 35
Format : UTF-8
Codec ID : S_TEXT/UTF8
Codec ID/Info : UTF-8 Plain Text
Duration : 51 min 31 s
Bit rate : 86 b/s
Frame rate : 0.204 FPS
Count of elements : 630
Stream size : 32.6 KiB (0%)
Language : Ukrainian
Default : No
Forced : No

Text #34
ID : 36
Format : UTF-8
Codec ID : S_TEXT/UTF8
Codec ID/Info : UTF-8 Plain Text
Duration : 51 min 22 s
Bit rate : 79 b/s
Frame rate : 0.201 FPS
Count of elements : 619
Stream size : 30.0 KiB (0%)
Language : Vietnamese
Default : No
Forced : No


7f5857c2d2155c8b58cecaa4509a6171_副本.jpg

◎译  名 雪国列车(剧版) 第二季
◎片  名 Snowpiercer Season 2
◎年  代 2021
◎产  地 英国/美国
◎类  别 剧情/动作/科幻/惊悚
◎语  言 英语
◎上映日期 2021-01-25(美国)
◎IMDb评分 8.3/10 from 70 users
◎IMDb链接 https://www.imdb.com/title/tt11146896/
◎豆瓣评分 7.8/10 from 3131 users
◎豆瓣链接 https://douban.com/subject/34885337/
◎集  数 10
◎导  演 克里斯托弗·史瑞弗 Christoph Schrewe
◎编  剧 格雷姆·曼森 Graeme Manson
◎主  演 詹妮弗·康纳利 Jennifer Connelly
       戴维德·迪格斯 Daveed Diggs
       肖恩·宾 Sean Bean
       安娜丽丝·巴索 Annalise Basso
       罗温·布兰查德 Rowan Blanchard
       伊多·戈德堡 Iddo Goldberg
       汤姆·里皮斯基 Tom Lipinski
       卡琳·考诺娃 Karin Konoval
       史蒂文·奥格 Steven Ogg
       山姆·奥图 Sam Otto
       马诺·苏德 Manoj Sood
       米奇·萨姆纳 Mickey Sumner
       希拉·凡德 Sheila Vand
       艾莉森·赖特 Alison Wright

◎简  介


  汤姆·里皮斯基([年轻气盛])将与詹妮弗·康纳利、戴维德·迪格斯一起出演剧版《雪国列车》第二季的循环角色。《雪国列车》二季现正制作中

Video
ID : 1
Format : HEVC
Format/Info : High Efficiency Video Coding
Format profile : Main 10@L5@Main
HDR format : Dolby Vision, Version 1.0, dvhe.08.06, BL+RPU, HDR10 compatible / SMPTE ST 2086, HDR10 compatible
Codec ID : V_MPEGH/ISO/HEVC
Duration : 47 min 30 s
Bit rate : 16.0 Mb/s
Width : 3 840 pixels
Height : 2 160 pixels
Display aspect ratio : 16:9
Frame rate mode : Constant
Frame rate : 23.976 (24000/1001) FPS
Color space : YUV
Chroma subsampling : 4:2:0 (Type 2)
Bit depth : 10 bits
Bits/(Pixel*Frame) : 0.080
Stream size : 5.30 GiB (95%)
Default : Yes
Forced : No
Color range : Limited
Color primaries : BT.2020
Transfer characteristics : PQ
Matrix coefficients : BT.2020 non-constant
Mastering display color primaries : Display P3
Mastering display luminance : min: 0.0001 cd/m2, max: 1000 cd/m2
Maximum Content Light Level : 5864 cd/m2
Maximum Frame-Average Light Level : 178 cd/m2

Audio
ID : 2
Format : E-AC-3 JOC
Format/Info : Enhanced AC-3 with Joint Object Coding
Commercial name : Dolby Digital Plus with Dolby Atmos
Codec ID : A_EAC3
Duration : 48 min 43 s
Bit rate mode : Constant
Bit rate : 768 kb/s
Channel(s) : 6 channels
Channel layout : L R C LFE Ls Rs
Sampling rate : 48.0 kHz
Frame rate : 31.250 FPS (1536 SPF)
Compression mode : Lossy
Stream size : 268 MiB (5%)
Language : English
Service kind : Complete Main
Default : Yes
Forced : No
Complexity index : 16
Number of dynamic objects : 15
Bed channel count : 1 channel
Bed channel configuration : LFE

Text #1
ID : 3
Format : UTF-8
Codec ID : S_TEXT/UTF8
Codec ID/Info : UTF-8 Plain Text
Duration : 46 min 24 s
Bit rate : 71 b/s
Frame rate : 0.298 FPS
Count of elements : 829
Stream size : 24.4 KiB (0%)
Title : [CC]
Language : English
Default : Yes
Forced : No

Text #2
ID : 4
Format : UTF-8
Codec ID : S_TEXT/UTF8
Codec ID/Info : UTF-8 Plain Text
Duration : 47 min 9 s
Bit rate : 97 b/s
Frame rate : 0.254 FPS
Count of elements : 720
Stream size : 33.7 KiB (0%)
Language : Arabic
Default : No
Forced : No

Text #3
ID : 5
Format : UTF-8
Codec ID : S_TEXT/UTF8
Codec ID/Info : UTF-8 Plain Text
Duration : 47 min 9 s
Bit rate : 54 b/s
Frame rate : 0.254 FPS
Count of elements : 720
Stream size : 18.7 KiB (0%)
Language : Czech
Default : No
Forced : No

Text #4
ID : 6
Format : UTF-8
Codec ID : S_TEXT/UTF8
Codec ID/Info : UTF-8 Plain Text
Duration : 47 min 9 s
Bit rate : 50 b/s
Frame rate : 0.251 FPS
Count of elements : 710
Stream size : 17.4 KiB (0%)
Language : Danish
Default : No
Forced : No

Text #5
ID : 7
Format : UTF-8
Codec ID : S_TEXT/UTF8
Codec ID/Info : UTF-8 Plain Text
Duration : 47 min 9 s
Bit rate : 54 b/s
Frame rate : 0.254 FPS
Count of elements : 718
Stream size : 18.8 KiB (0%)
Language : German
Default : No
Forced : No

Text #6
ID : 8
Format : UTF-8
Codec ID : S_TEXT/UTF8
Codec ID/Info : UTF-8 Plain Text
Duration : 47 min 9 s
Bit rate : 93 b/s
Frame rate : 0.254 FPS
Count of elements : 718
Stream size : 32.4 KiB (0%)
Language : Greek
Default : No
Forced : No

Text #7
ID : 9
Format : UTF-8
Codec ID : S_TEXT/UTF8
Codec ID/Info : UTF-8 Plain Text
Duration : 47 min 9 s
Bit rate : 55 b/s
Frame rate : 0.254 FPS
Count of elements : 720
Stream size : 19.3 KiB (0%)
Language : Spanish
Default : No
Forced : No

Text #8
ID : 10
Format : UTF-8
Codec ID : S_TEXT/UTF8
Codec ID/Info : UTF-8 Plain Text
Duration : 47 min 9 s
Bit rate : 56 b/s
Frame rate : 0.254 FPS
Count of elements : 719
Stream size : 19.6 KiB (0%)
Title : European
Language : Spanish
Default : No
Forced : No

Text #9
ID : 11
Format : UTF-8
Codec ID : S_TEXT/UTF8
Codec ID/Info : UTF-8 Plain Text
Duration : 47 min 9 s
Bit rate : 53 b/s
Frame rate : 0.252 FPS
Count of elements : 713
Stream size : 18.3 KiB (0%)
Language : Finnish
Default : No
Forced : No

Text #10
ID : 12
Format : UTF-8
Codec ID : S_TEXT/UTF8
Codec ID/Info : UTF-8 Plain Text
Duration : 47 min 9 s
Bit rate : 58 b/s
Frame rate : 0.253 FPS
Count of elements : 716
Stream size : 20.2 KiB (0%)
Language : French
Default : No
Forced : No

Text #11
ID : 13
Format : UTF-8
Codec ID : S_TEXT/UTF8
Codec ID/Info : UTF-8 Plain Text
Duration : 47 min 9 s
Bit rate : 88 b/s
Frame rate : 0.255 FPS
Count of elements : 721
Stream size : 30.4 KiB (0%)
Language : Hebrew
Default : No
Forced : No

Text #12
ID : 14
Format : UTF-8
Codec ID : S_TEXT/UTF8
Codec ID/Info : UTF-8 Plain Text
Duration : 47 min 9 s
Bit rate : 151 b/s
Frame rate : 0.255 FPS
Count of elements : 721
Stream size : 52.5 KiB (0%)
Language : Hindi
Default : No
Forced : No

Text #13
ID : 15
Format : UTF-8
Codec ID : S_TEXT/UTF8
Codec ID/Info : UTF-8 Plain Text
Duration : 47 min 8 s
Bit rate : 52 b/s
Frame rate : 0.228 FPS
Count of elements : 645
Stream size : 18.1 KiB (0%)
Language : Croatian
Default : No
Forced : No

Text #14
ID : 16
Format : UTF-8
Codec ID : S_TEXT/UTF8
Codec ID/Info : UTF-8 Plain Text
Duration : 47 min 9 s
Bit rate : 51 b/s
Frame rate : 0.253 FPS
Count of elements : 717
Stream size : 17.9 KiB (0%)
Language : Hungarian
Default : No
Forced : No

Text #15
ID : 17
Format : UTF-8
Codec ID : S_TEXT/UTF8
Codec ID/Info : UTF-8 Plain Text
Duration : 47 min 9 s
Bit rate : 53 b/s
Frame rate : 0.255 FPS
Count of elements : 721
Stream size : 18.6 KiB (0%)
Language : Indonesian
Default : No
Forced : No

Text #16
ID : 18
Format : UTF-8
Codec ID : S_TEXT/UTF8
Codec ID/Info : UTF-8 Plain Text
Duration : 47 min 9 s
Bit rate : 56 b/s
Frame rate : 0.254 FPS
Count of elements : 718
Stream size : 19.5 KiB (0%)
Language : Italian
Default : No
Forced : No

Text #17
ID : 19
Format : UTF-8
Codec ID : S_TEXT/UTF8
Codec ID/Info : UTF-8 Plain Text
Duration : 47 min 9 s
Bit rate : 56 b/s
Frame rate : 0.218 FPS
Count of elements : 616
Stream size : 19.4 KiB (0%)
Language : Japanese
Default : No
Forced : No

Text #18
ID : 20
Format : UTF-8
Codec ID : S_TEXT/UTF8
Codec ID/Info : UTF-8 Plain Text
Duration : 47 min 9 s
Bit rate : 74 b/s
Frame rate : 0.255 FPS
Count of elements : 721
Stream size : 25.9 KiB (0%)
Language : Korean
Default : No
Forced : No

Text #19
ID : 21
Format : UTF-8
Codec ID : S_TEXT/UTF8
Codec ID/Info : UTF-8 Plain Text
Duration : 47 min 8 s
Bit rate : 55 b/s
Frame rate : 0.250 FPS
Count of elements : 708
Stream size : 19.1 KiB (0%)
Language : Malay
Default : No
Forced : No

Text #20
ID : 22
Format : UTF-8
Codec ID : S_TEXT/UTF8
Codec ID/Info : UTF-8 Plain Text
Duration : 47 min 9 s
Bit rate : 55 b/s
Frame rate : 0.254 FPS
Count of elements : 718
Stream size : 19.2 KiB (0%)
Language : Norwegian Bokmal
Default : No
Forced : No

Text #21
ID : 23
Format : UTF-8
Codec ID : S_TEXT/UTF8
Codec ID/Info : UTF-8 Plain Text
Duration : 47 min 9 s
Bit rate : 49 b/s
Frame rate : 0.251 FPS
Count of elements : 711
Stream size : 17.3 KiB (0%)
Language : Dutch
Default : No
Forced : No

Text #22
ID : 24
Format : UTF-8
Codec ID : S_TEXT/UTF8
Codec ID/Info : UTF-8 Plain Text
Duration : 47 min 9 s
Bit rate : 52 b/s
Frame rate : 0.253 FPS
Count of elements : 716
Stream size : 18.3 KiB (0%)
Language : Polish
Default : No
Forced : No

Text #23
ID : 25
Format : UTF-8
Codec ID : S_TEXT/UTF8
Codec ID/Info : UTF-8 Plain Text
Duration : 47 min 9 s
Bit rate : 58 b/s
Frame rate : 0.254 FPS
Count of elements : 720
Stream size : 20.3 KiB (0%)
Language : Portuguese
Default : No
Forced : No

Text #24
ID : 26
Format : UTF-8
Codec ID : S_TEXT/UTF8
Codec ID/Info : UTF-8 Plain Text
Duration : 47 min 9 s
Bit rate : 54 b/s
Frame rate : 0.255 FPS
Count of elements : 721
Stream size : 18.8 KiB (0%)
Title : Brazilian
Language : Portuguese
Default : No
Forced : No

Text #25
ID : 27
Format : UTF-8
Codec ID : S_TEXT/UTF8
Codec ID/Info : UTF-8 Plain Text
Duration : 47 min 9 s
Bit rate : 65 b/s
Frame rate : 0.254 FPS
Count of elements : 719
Stream size : 22.6 KiB (0%)
Language : Romanian
Default : No
Forced : No

Text #26
ID : 28
Format : UTF-8
Codec ID : S_TEXT/UTF8
Codec ID/Info : UTF-8 Plain Text
Duration : 47 min 9 s
Bit rate : 89 b/s
Frame rate : 0.255 FPS
Count of elements : 721
Stream size : 30.9 KiB (0%)
Language : Russian
Default : No
Forced : No

Text #27
ID : 29
Format : UTF-8
Codec ID : S_TEXT/UTF8
Codec ID/Info : UTF-8 Plain Text
Duration : 47 min 9 s
Bit rate : 54 b/s
Frame rate : 0.254 FPS
Count of elements : 718
Stream size : 18.7 KiB (0%)
Language : Swedish
Default : No
Forced : No

Text #28
ID : 30
Format : UTF-8
Codec ID : S_TEXT/UTF8
Codec ID/Info : UTF-8 Plain Text
Duration : 47 min 9 s
Bit rate : 158 b/s
Frame rate : 0.255 FPS
Count of elements : 721
Stream size : 54.6 KiB (0%)
Language : Thai
Default : No
Forced : No

Text #29
ID : 31
Format : UTF-8
Codec ID : S_TEXT/UTF8
Codec ID/Info : UTF-8 Plain Text
Duration : 47 min 9 s
Bit rate : 56 b/s
Frame rate : 0.255 FPS
Count of elements : 721
Stream size : 19.6 KiB (0%)
Language : Turkish
Default : No
Forced : No

Text #30
ID : 32
Format : UTF-8
Codec ID : S_TEXT/UTF8
Codec ID/Info : UTF-8 Plain Text
Duration : 47 min 9 s
Bit rate : 89 b/s
Frame rate : 0.248 FPS
Count of elements : 703
Stream size : 31.0 KiB (0%)
Language : Ukrainian
Default : No
Forced : No

Text #31
ID : 33
Format : UTF-8
Codec ID : S_TEXT/UTF8
Codec ID/Info : UTF-8 Plain Text
Duration : 47 min 9 s
Bit rate : 80 b/s
Frame rate : 0.255 FPS
Count of elements : 721
Stream size : 27.7 KiB (0%)
Language : Vietnamese
Default : No
Forced : No

Text #32
ID : 34
Format : UTF-8
Codec ID : S_TEXT/UTF8
Codec ID/Info : UTF-8 Plain Text
Duration : 47 min 9 s
Bit rate : 68 b/s
Frame rate : 0.255 FPS
Count of elements : 721
Stream size : 23.5 KiB (0%)
Title : 简体
Language : 中文
Default : No
Forced : No

Text #33
ID : 35
Format : UTF-8
Codec ID : S_TEXT/UTF8
Codec ID/Info : UTF-8 Plain Text
Duration : 47 min 9 s
Bit rate : 58 b/s
Frame rate : 0.255 FPS
Count of elements : 721
Stream size : 20.1 KiB (0%)
Title : 繁体
Language : 中文
Default : No
Forced : No


9bbbcc765670ba9398b25ffaf1348c7d_副本.jpg

◎译  名 雪国列车(剧版) 第三季
◎片  名 Snowpiercer Season 3
◎年  代 2022
◎产  地 美国
◎类  别 剧情/动作/科幻/惊悚
◎语  言 英语
◎上映日期 2022-01-24(美国)
◎IMDb评分 6.9/10 from 53487 users
◎IMDb链接 https://www.imdb.com/title/tt6156584/
◎豆瓣评分 6.7/10 from 1191 users
◎豆瓣链接 https://douban.com/subject/35333701/
◎导  演 克里斯托弗·史瑞弗 Christoph Schrewe
◎编  剧 乔什·弗莱德曼 Josh Friedman / 格雷姆·曼森 Graeme Manson / 奉俊昊 Joon-ho Bong / 凯利·玛斯特森 Kelly Masterson / 雅克·罗布 Jacques Lob / 本杰明·罗格朗 Benjamin Legrand / 让-马克·罗切特 Jean-Marc Rochette
◎主  演 戴维德·迪格斯 Daveed Diggs
       詹妮弗·康纳利 Jennifer Connelly
       肖恩·宾 Sean Bean
       雅奇·潘嘉比 Archie Panjabi
       罗温·布兰查德 Rowan Blanchard
       艾莉森·赖特 Alison Wright
       伊多·戈德堡 Iddo Goldberg
       米奇·萨姆纳 Mickey Sumner
       凯蒂·麦吉尼斯 Katie McGuinness
       克里斯蒂安·布鲁恩 Kristian Bruun
       卡琳·考诺娃 Karin Konoval
       莉娜·霍尔 Lena Hall
       切尔西哈里斯 Chelsea Harris

◎简  介

  一片雪花飘过冰封的地球和列车,刚刚得到的自由又变得混乱,因为肖恩·宾饰演的“雪国列车”创造者Wilford回来了,与Layton针锋相对。



下载地址:

第一季
游客,如果您要查看本帖隐藏内容请回复

第二季
游客,如果您要查看本帖隐藏内容请回复


第二季(资源为1080P高清版本)
游客,如果您要查看本帖隐藏内容请回复





上一篇:玩家 / Players (2022) 第一季全/4K高清版本下载
下一篇:送报女孩 [简繁中字]/Paper Girls (2022)第一季全/4K高清版本下载
回复

使用道具 举报

39

主题

1454

帖子

4128

积分

4K家园VIP

Rank: 9Rank: 9Rank: 9

积分
4128
发表于 7 天前 | 显示全部楼层
楼猪V5啊
回复 支持 反对

使用道具 举报

0

主题

18

帖子

31

积分

新手上路

Rank: 1

积分
31
发表于 7 天前 | 显示全部楼层
挣分下载啊,还不到10分呢
回复 支持 反对

使用道具 举报

0

主题

1

帖子

10

积分

新手上路

Rank: 1

积分
10
发表于 7 天前 | 显示全部楼层
麻烦给下载链接 谢谢
回复 支持 反对

使用道具 举报

0

主题

1361

帖子

3905

积分

4K家园VIP

Rank: 9Rank: 9Rank: 9

积分
3905
发表于 5 天前 | 显示全部楼层
very good
回复 支持 反对

使用道具 举报

0

主题

5

帖子

21

积分

新手上路

Rank: 1

积分
21
发表于 5 天前 来自手机 | 显示全部楼层
好好
回复

使用道具 举报

1

主题

1351

帖子

4069

积分

4K家园VIP

Rank: 9Rank: 9Rank: 9

积分
4069
发表于 前天 10:54 来自手机 | 显示全部楼层
都不知道说的啥
回复 支持 反对

使用道具 举报

您需要登录后才可以回帖 登录 | 立即注册

本版积分规则

精彩图文
Archiver|手机版|TAG|Sitemap|新帖|专题|联系我们:邮箱: 4kjia.com@gmail.com   

4k家园   ©2019