[4K电影] 空前绝后满天飞2 / Airplane II (1982) 4K高清版本下载

[复制链接]

2327

主题

2476

帖子

1万

积分

超级版主

Rank: 8Rank: 8

积分
17940
 楼主| 发表于 2022-8-6 10:17:42 | 显示全部楼层 |阅读模式
本帖最后由 最爱4K哟 于 2022-8-6 10:19 编辑

QQ图片20220806100713_副本.png

◎译  名 空前绝后满天飞2:瞒天过海飞飞飞/空前绝后满天飞续集
◎片  名 Airplane II: The Sequel
◎年  代 1982
◎产  地 美国
◎类  别 喜剧/科幻
◎语  言 英语
◎上映日期 1982-12-10(美国)
◎IMDb评分 6.1/10 from 52739 users
◎IMDb链接 https://www.imdb.com/title/tt0083530/
◎豆瓣评分 7.0/10 from 3166 users
◎豆瓣链接 https://movie.douban.com/subject/1298727/
◎导  演 肯·芬克尔曼 Ken Finkleman
◎编  剧 肯·芬克尔曼 Ken Finkleman
◎主  演 朱丽·哈基提 Julie Hagerty
       罗伯特·海斯 Robert Hays
       劳埃德·布里吉斯 Lloyd Bridges
       查德·艾微特 Chad Everett
       皮特·格拉维斯 Peter Graves
       詹姆斯·诺贝尔 James Noble
       Gail Matthius Gail Matthius
       肯特·麦科德 Kent McCord
       Tom McGreevey Tom McGreevey
       约翰·拉尔克 John Larch
       戴维·莱热 David Leisure
       Jack Jones Jack Jones
       理查德·吉利兰德 Richard Gilliland
       Hugh Gillin Hugh Gillin
       路易斯·基亚姆布拉沃 Louis Giambalvo
       Wendy Phillips Wendy Phillips
       Ann Nelson Ann Nelson
       李·帕特森 Lee Patterson
       Stephen Stucker Stephen Stucker
       Elisa Goodman Elisa Goodman
       肯·芬克尔曼 Ken Finkleman
       雷蒙德·布尔 Raymond Burr
       小詹姆斯·A·沃森 James A. Watson Jr.
       Sandy Ward Sandy Ward
       Mary Mon Toy Mary Mon Toy
       路易丝·索莱尔 Louise Sorel
       Hank Robinson Hank Robinson
       Pat Sajak Pat Sajak
       Kenneth O'Brien Kenneth O'Brien
       Marcy Lafferty Marcy Lafferty
       Martin Garner Martin Garner
       布鲁斯·弗兰奇 Bruce French
       约翰·帕拉贡 John Paragon
       约翰·德纳 John Dehner
       Maurice Hill Maurice Hill
       约翰·汉考克 John Hancock
       劳伦妮·兰登 Laurene Landon
       约翰·沃侬 John Vernon
       乔治·温迪特 George Wendt
       瑞克·欧弗顿 Rick Overton
       Ricky Powell Ricky Powell
       莫妮卡·加布里埃尔 Monique Gabrielle
       雷普·汤恩 Rip Torn
       Craig Berenson Craig Berenson
       桑尼·波诺 Sonny Bono
       查克·康诺斯 Chuck Connors
       桑达·伯格曼 Sandahl Bergman
       赫夫·维勒查泽 Hervé Villechaize
       Art Fleming Art Fleming
       Gary Faga Gary Faga
       Joyce DeWitt Joyce DeWitt
       李·布莱恩特 Lee Bryant
       帕特里克·卡利顿 Patrick Culliton
       迈克尔·柯里 Michael Currie
       博克伯恩斯 Burke Byrnes
       杰克·伯纳迪 Jack Bernardi
       阿尔·伯恩 Earl Boen
       莱昂·阿斯金 Leon Askin
       Frank Ashmore Frank Ashmore
       山姆·安德森 Sam Anderson
       小猫娜提雅维达 Kitten Natividad
       理查德·杰克尔 Richard Jaeckel
       李·珀塞尔 Lee Purcell
                   大卫·佩默 David Paymer
       威廉·夏特纳 William Shatner



◎简  介


       大批乘客离开地球,乘坐第一艘民用太空梭直飞月球,然而机上有个炸弹怪客,太空梭就快要被炸开了,加上引擎又故障,但是最糟的却是飞机上发现他们没有咖啡可喝。

Video
ID : 1
Format : HEVC
Format/Info : High Efficiency Video Coding
Format profile : Main 10@L5@High
HDR format : Dolby Vision, Version 1.0, dvhe.05.06, BL+RPU
Codec ID : V_MPEGH/ISO/HEVC
Duration : 1 h 24 min
Bit rate : 24.9 Mb/s
Width : 3 840 pixels
Height : 2 076 pixels
Display aspect ratio : 1.85:1
Frame rate mode : Constant
Frame rate : 23.976 (24000/1001) FPS
Color space : YUV
Chroma subsampling : 4:2:0
Bit depth : 10 bits
Bits/(Pixel*Frame) : 0.130
Stream size : 14.7 GiB (93%)
Default : Yes
Forced : No

Audio #1
ID : 2
Format : DTS XLL
Format/Info : Digital Theater Systems
Commercial name : DTS-HD Master Audio
Codec ID : A_DTS
Duration : 1 h 24 min
Bit rate mode : Variable
Bit rate : 1 587 kb/s
Channel(s) : 2 channels
Channel layout : L R
Sampling rate : 48.0 kHz
Frame rate : 93.750 FPS (512 SPF)
Bit depth : 24 bits
Compression mode : Lossless
Delay relative to video : 6 ms
Stream size : 956 MiB (6%)
Title : DTS-HD MA 2.0
Language : English
Default : Yes
Forced : No

Audio #2
ID : 3
Format : AAC LC
Format/Info : Advanced Audio Codec Low Complexity
Codec ID : A_AAC-2
Duration : 1 h 24 min
Bit rate : 123 kb/s
Channel(s) : 2 channels
Channel layout : L R
Sampling rate : 48.0 kHz
Frame rate : 46.875 FPS (1024 SPF)
Compression mode : Lossy
Stream size : 74.1 MiB (0%)
Title : AAC 2.0
Language : English
Default : No
Forced : No

Text #1
ID : 4
Format : UTF-8
Codec ID : S_TEXT/UTF8
Codec ID/Info : UTF-8 Plain Text
Duration : 1 h 23 min
Bit rate : 79 b/s
Frame rate : 0.375 FPS
Count of elements : 1875
Stream size : 48.3 KiB (0%)
Title : English CC
Language : English
Default : No
Forced : No

Text #2
ID : 5
Format : UTF-8
Codec ID : S_TEXT/UTF8
Codec ID/Info : UTF-8 Plain Text
Duration : 1 h 23 min
Bit rate : 115 b/s
Frame rate : 0.231 FPS
Count of elements : 1152
Stream size : 70.2 KiB (0%)
Title : Bulgarian
Language : Bulgarian
Default : No
Forced : No

Text #3
ID : 6
Format : UTF-8
Codec ID : S_TEXT/UTF8
Codec ID/Info : UTF-8 Plain Text
Duration : 1 h 23 min
Bit rate : 124 b/s
Frame rate : 0.237 FPS
Count of elements : 1181
Stream size : 75.6 KiB (0%)
Title : Greek
Language : Greek
Default : No
Forced : No

Text #4
ID : 7
Format : PGS
Muxing mode : zlib
Codec ID : S_HDMV/PGS
Codec ID/Info : Picture based subtitle format used on BDs/HD-DVDs
Duration : 1 h 21 min
Bit rate : 46.5 kb/s
Frame rate : 0.488 FPS
Count of elements : 2398
Stream size : 27.2 MiB (0%)
Title : SDH
Language : English
Default : No
Forced : No

Text #5
ID : 8
Format : PGS
Muxing mode : zlib
Codec ID : S_HDMV/PGS
Codec ID/Info : Picture based subtitle format used on BDs/HD-DVDs
Duration : 1 h 23 min
Bit rate : 42.1 kb/s
Frame rate : 0.461 FPS
Count of elements : 2306
Stream size : 25.1 MiB (0%)
Language : French
Default : No
Forced : No

Text #6
ID : 9
Format : PGS
Muxing mode : zlib
Codec ID : S_HDMV/PGS
Codec ID/Info : Picture based subtitle format used on BDs/HD-DVDs
Duration : 1 h 23 min
Bit rate : 41.8 kb/s
Frame rate : 0.457 FPS
Count of elements : 2288
Stream size : 24.9 MiB (0%)
Language : Spanish
Default : No
Forced : No

Menu
00:00:00.000 : en:Chapter 01
00:08:05.902 : en:Chapter 02
00:16:32.826 : en:Chapter 03
00:19:57.489 : en:Chapter 04
00:23:02.132 : en:Chapter 05
00:31:20.547 : en:Chapter 06
00:37:38.883 : en:Chapter 07
00:42:18.455 : en:Chapter 08
00:45:25.308 : en:Chapter 09
00:49:29.386 : en:Chapter 10
00:55:04.346 : en:Chapter 11
01:00:04.854 : en:Chapter 12
01:07:02.147 : en:Chapter 13
01:10:44.244 : en:Chapter 14
01:18:24.037 : en:Chapter 15

资源速度为零或资源敏感被和谐时,推荐使用qBittorrent等下载软件,有条件的推荐115更好的下载软件!

下载地址:


游客,如果您要查看本帖隐藏内容请回复

游客,如果您要查看本帖隐藏内容请回复

游客,如果您要查看本帖隐藏内容请回复





上一篇:空前绝后满天飞 [繁体中字] / Airplane! (1980) 4K高清版本下载
下一篇:48小时闯天关 / Another 48 Hrs (1990) 4K高清版本下载
回复

使用道具 举报

62

主题

1616

帖子

4684

积分

4K家园VIP

Rank: 9Rank: 9Rank: 9

积分
4684
发表于 2022-8-6 10:17:46 | 显示全部楼层
感谢推荐,确实不错
回复 支持 反对

使用道具 举报

0

主题

2

帖子

22

积分

新手上路

Rank: 1

积分
22
发表于 2022-8-6 19:50:12 | 显示全部楼层
没有看过,谢谢分享。
回复 支持 反对

使用道具 举报

3

主题

1622

帖子

4462

积分

4K家园VIP

Rank: 9Rank: 9Rank: 9

积分
4462
发表于 2022-8-7 17:52:16 | 显示全部楼层
4K家园资源最近貌似越来越多了
回复 支持 反对

使用道具 举报

37

主题

1423

帖子

4085

积分

4K家园VIP

Rank: 9Rank: 9Rank: 9

积分
4085
发表于 2022-8-16 14:44:59 来自手机 | 显示全部楼层
啊啊啊啊啊啊啊啊啊啊啊
回复 支持 反对

使用道具 举报

4

主题

1368

帖子

4115

积分

4K家园VIP

Rank: 9Rank: 9Rank: 9

积分
4115
发表于 2022-8-16 23:13:59 来自手机 | 显示全部楼层
支持,楼下的跟上哈~
回复 支持 反对

使用道具 举报

1

主题

1382

帖子

4164

积分

4K家园VIP

Rank: 9Rank: 9Rank: 9

积分
4164
发表于 2022-8-18 05:59:22 | 显示全部楼层
向楼主学习
回复 支持 反对

使用道具 举报

您需要登录后才可以回帖 登录 | 立即注册

本版积分规则

精彩图文
Archiver|手机版|TAG|Sitemap|新帖|专题|联系我们:邮箱: 4kjia.com@gmail.com   

4k家园   ©2019