[4K电影] 48小时闯天关 / Another 48 Hrs (1990) 4K高清版本下载

[复制链接]

2327

主题

2476

帖子

1万

积分

超级版主

Rank: 8Rank: 8

积分
17940
 楼主| 发表于 2022-8-6 11:42:50 | 显示全部楼层 |阅读模式
本帖最后由 最爱4K哟 于 2022-8-6 11:42 编辑

QQ图片20220806113535_副本.png

◎译  名 48小时闯天关/新48小时/四十八小时2
◎片  名 Another 48 Hrs.
◎年  代 1990
◎产  地 美国
◎类  别 剧情/喜剧/动作/惊悚/犯罪
◎语  言 英语
◎上映日期 1990-06-08
◎IMDb评分 5.9/10 from 41681 users
◎IMDb链接 https://www.imdb.com/title/tt0099044/
◎豆瓣评分 6.1/10 from 189 users
◎豆瓣链接 https://movie.douban.com/subject/1296349/
◎导  演 沃尔特·希尔 Walter Hill
◎编  剧 杰布·斯图尔特 Jeb Stuart / 斯蒂芬·E.德·索萨 Steven E. de Souza / 拉里·格罗斯 Larry Gross /约翰·法沙诺 John Fasano / 罗杰·斯波蒂斯伍德 Roger Spottiswoode / 沃尔特·希尔 Walter Hill / 艾迪·墨菲 Eddie Murphy
◎主  演 艾迪·墨菲 Eddie Murphy
       尼克·诺特 Nick Nolte
       布里翁·詹姆斯 Brion James
       谢娜·奥勃良 Shauna O'Brien
       Dawn Robinson Dawn Robinson
       Edgar Small Edgar Small
       Michael Williams Michael Williams
       Edward Walsh Edward Walsh
       佩姬·梁 Page Leong
       布赖特·詹宁斯 Brent Jennings
       阿兰·格拉夫 Allan Graf
       埃德·欧罗斯 Ed O'Ross
       菲利斯·奥兰迪 Felice Orlandi
       小猫娜提雅维达 Kitten Natividad
       Hoke Howell Hoke Howell
       提莎·坎贝尔-马丁 Tisha Campbell-Martin
       丹尼斯海顿 Dennis Hayden
       凯文·泰德 Kevin Tighe
       安德鲁·迪沃夫 Andrew Divoff
       伯尼·凯西 Bernie Casey
       Alisa Christensen Alisa Christensen
       维克托·勃兰特 Victor Brandt
       特德·马克兰德 Ted Markland
       Benjamin Lum Benjamin Lum
       Russ McCubbin Russ McCubbin
       弗兰克·麦克雷 Frank McRae
       Richard Lee-Sung Richard Lee-Sung
       John Del Regno John Del Regno
       南茜·艾薇哈德 Nancy Everhard
       Deirdre Fitzpatrick Deirdre Fitzpatrick


◎简  介


  白人警探尼克.诺尔蒂为了追查神秘的毒贩"卖冰人",不得不找当年的黑人罪犯搭档埃迪.墨菲协助提供线索。埃迪因有一笔巨款仍寄存在尼克手上,只好不情不愿地加以帮忙,但二人在合作过程中发生多起冲突。最后,他们还是发现了卖冰人"的真正身份,原来是警察中人。全片从编剧的情节安排,到导演的动作设计,再到演员的卖力演出,处处可见台前幕后工作人员尽力使本片显得热闹好看的努力,不过最终还是摆脱不了既有的框架,只是在公式化之中转圈圈,甚至埃迪的惹笑伎俩也显得有点技穷了。
Video
ID : 1
Format : HEVC
Format/Info : High Efficiency Video Coding
Format profile : Main 10@L5@High
HDR format : SMPTE ST 2086, HDR10 compatible
Codec ID : V_MPEGH/ISO/HEVC
Duration : 1 h 35 min
Bit rate : 24.5 Mb/s
Width : 3 840 pixels
Height : 2 076 pixels
Display aspect ratio : 1.85:1
Frame rate mode : Constant
Frame rate : 23.976 FPS
Color space : YUV
Chroma subsampling : 4:2:0 (Type 2)
Bit depth : 10 bits
Bits/(Pixel*Frame) : 0.128
Stream size : 16.3 GiB (75%)
Default : Yes
Forced : No
Color range : Limited
Color primaries : BT.2020
Transfer characteristics : PQ
Matrix coefficients : BT.2020 non-constant
Mastering display color primaries : Display P3
Mastering display luminance : min: 0.0050 cd/m2, max: 1000 cd/m2
Maximum Content Light Level : 2657 cd/m2
Maximum Frame-Average Light Level : 435 cd/m2

Audio #1
ID : 2
Format : MLP FBA
Format/Info : Meridian Lossless Packing FBA
Commercial name : Dolby TrueHD
Codec ID : A_TRUEHD
Duration : 1 h 35 min
Bit rate mode : Variable
Bit rate : 3 637 kb/s
Maximum bit rate : 4 929 kb/s
Channel(s) : 6 channels
Channel layout : L R C LFE Ls Rs
Sampling rate : 48.0 kHz
Frame rate : 1 200.000 FPS (40 SPF)
Compression mode : Lossless
Stream size : 2.42 GiB (11%)
Title : TrueHD 5.1
Language : English
Default : Yes
Forced : No

Audio #2
ID : 3
Format : DTS XLL
Format/Info : Digital Theater Systems
Commercial name : DTS-HD Master Audio
Codec ID : A_DTS
Duration : 1 h 35 min
Bit rate mode : Variable
Bit rate : 4 117 kb/s
Channel(s) : 6 channels
Channel layout : C L R Ls Rs LFE
Sampling rate : 48.0 kHz
Frame rate : 93.750 FPS (512 SPF)
Bit depth : 24 bits
Compression mode : Lossless
Stream size : 2.74 GiB (13%)
Title : DTS-HD MA 5.1
Language : English
Default : No
Forced : No

Audio #3
ID : 4
Format : AC-3
Format/Info : Audio Coding 3
Commercial name : Dolby Digital
Codec ID : A_AC3
Duration : 1 h 35 min
Bit rate mode : Constant
Bit rate : 384 kb/s
Channel(s) : 6 channels
Channel layout : L R C LFE Ls Rs
Sampling rate : 48.0 kHz
Frame rate : 31.250 FPS (1536 SPF)
Compression mode : Lossy
Stream size : 262 MiB (1%)
Title : DD 5.1
Language : English
Service kind : Complete Main
Default : No
Forced : No

Text #1
ID : 5
Format : UTF-8
Codec ID : S_TEXT/UTF8
Codec ID/Info : UTF-8 Plain Text
Duration : 1 h 27 min
Bit rate : 74 b/s
Frame rate : 0.230 FPS
Count of elements : 1215
Stream size : 47.8 KiB (0%)
Language : English
Default : Yes
Forced : No

Text #2
ID : 6
Format : UTF-8
Codec ID : S_TEXT/UTF8
Codec ID/Info : UTF-8 Plain Text
Duration : 1 h 27 min
Bit rate : 53 b/s
Frame rate : 0.150 FPS
Count of elements : 792
Stream size : 34.7 KiB (0%)
Title : French European
Language : French
Default : No
Forced : No

Text #3
ID : 7
Format : PGS
Muxing mode : zlib
Codec ID : S_HDMV/PGS
Codec ID/Info : Picture based subtitle format used on BDs/HD-DVDs
Duration : 1 h 27 min
Bit rate : 50.4 kb/s
Frame rate : 0.461 FPS
Count of elements : 2430
Stream size : 31.7 MiB (0%)
Language : English
Default : No
Forced : No

Text #4
ID : 8
Format : PGS
Muxing mode : zlib
Codec ID : S_HDMV/PGS
Codec ID/Info : Picture based subtitle format used on BDs/HD-DVDs
Duration : 1 h 30 min
Bit rate : 53.5 kb/s
Frame rate : 0.504 FPS
Count of elements : 2752
Stream size : 34.8 MiB (0%)
Title : SDH
Language : English
Default : No
Forced : No

Text #5
ID : 9
Format : PGS
Muxing mode : zlib
Codec ID : S_HDMV/PGS
Codec ID/Info : Picture based subtitle format used on BDs/HD-DVDs
Duration : 1 h 30 min
Bit rate : 32.1 kb/s
Frame rate : 0.264 FPS
Count of elements : 1434
Stream size : 20.8 MiB (0%)
Language : German
Default : No
Forced : No

Text #6
ID : 10
Format : PGS
Muxing mode : zlib
Codec ID : S_HDMV/PGS
Codec ID/Info : Picture based subtitle format used on BDs/HD-DVDs
Duration : 1 h 27 min
Bit rate : 34.0 kb/s
Frame rate : 0.300 FPS
Count of elements : 1584
Stream size : 21.4 MiB (0%)
Language : French
Default : No
Forced : No

Text #7
ID : 11
Format : PGS
Muxing mode : zlib
Codec ID : S_HDMV/PGS
Codec ID/Info : Picture based subtitle format used on BDs/HD-DVDs
Duration : 1 h 27 min
Bit rate : 24.7 kb/s
Frame rate : 0.348 FPS
Count of elements : 1836
Stream size : 15.5 MiB (0%)
Language : Japanese
Default : No
Forced : No

Menu
00:00:00.000 : en:Chapter 01
00:07:45.965 : en:Chapter 02
00:13:22.302 : en:Chapter 03
00:20:26.726 : en:Chapter 04
00:24:25.382 : en:Chapter 05
00:32:47.258 : en:Chapter 06
00:42:21.416 : en:Chapter 07
00:52:42.203 : en:Chapter 08
00:57:38.625 : en:Chapter 09
01:07:20.623 : en:Chapter 10
01:11:11.438 : en:Chapter 11
01:17:12.215 : en:Chapter 12
01:21:49.868 : en:Chapter 13
01:29:33.707 : en:Chapter 14
01:32:24.794 : en:Chapter 15


资源速度为零或资源敏感被和谐时,推荐使用qBittorrent等下载软件,有条件的推荐115更好的下载软件!

下载地址:


游客,如果您要查看本帖隐藏内容请回复

游客,如果您要查看本帖隐藏内容请回复

游客,如果您要查看本帖隐藏内容请回复





上一篇:空前绝后满天飞2 / Airplane II (1982) 4K高清版本下载
下一篇:海绵宝宝:营救大冒险 (2020) 4K高清版本下载
回复

使用道具 举报

1

主题

1650

帖子

4572

积分

4K家园VIP

Rank: 9Rank: 9Rank: 9

积分
4572
发表于 2022-8-6 11:42:57 | 显示全部楼层
回个帖子,下班咯~
回复 支持 反对

使用道具 举报

0

主题

6

帖子

33

积分

新手上路

Rank: 1

积分
33
发表于 2022-8-6 21:30:59 | 显示全部楼层
aaaaaaaaaaaaaaaaaaaaaaaaaa
回复 支持 反对

使用道具 举报

52

主题

1539

帖子

4439

积分

4K家园VIP

Rank: 9Rank: 9Rank: 9

积分
4439
发表于 2022-8-9 04:55:23 | 显示全部楼层
好帖必须得顶起
回复 支持 反对

使用道具 举报

0

主题

475

帖子

2895

积分

注册会员

Rank: 2

积分
2895
发表于 2022-8-9 11:59:54 | 显示全部楼层
谢谢楼主分享
回复 支持 反对

使用道具 举报

1

主题

1368

帖子

4122

积分

4K家园VIP

Rank: 9Rank: 9Rank: 9

积分
4122
发表于 2022-8-25 06:21:15 | 显示全部楼层
回复 支持 反对

使用道具 举报

3

主题

1792

帖子

4924

积分

中级会员

Rank: 4

积分
4924
发表于 2022-8-27 01:45:13 | 显示全部楼层
very good
回复 支持 反对

使用道具 举报

1

主题

1309

帖子

3951

积分

4K家园VIP

Rank: 9Rank: 9Rank: 9

积分
3951
发表于 2022-9-4 02:37:32 | 显示全部楼层
秀起来~
回复 支持 反对

使用道具 举报

您需要登录后才可以回帖 登录 | 立即注册

本版积分规则

精彩图文
Archiver|手机版|TAG|Sitemap|新帖|专题|联系我们:邮箱: 4kjia.com@gmail.com   

4k家园   ©2019