黑鸟 [简繁粤中字] / Black Bird (2022)第一季全/4K高清版本下载

[复制链接]

205

主题

228

帖子

2261

积分

版主

Rank: 7Rank: 7Rank: 7

积分
2261
 楼主| 发表于 2022-8-8 21:31:57 | 显示全部楼层 |阅读模式
本帖最后由 美剧小虾 于 2022-8-8 21:46 编辑

p2877228263_副本.jpg

◎译  名 黑鸟/与魔鬼同行/In with the Devil/The Falcon's Tale
◎片  名 Black Bird
◎年  代 2022
◎产  地 美国
◎类  别 剧情/犯罪
◎语  言 英语
◎上映日期 2022-07-08(美国)
◎IMDb评分8.4/10 from 1,507 users
◎IMDb链接https://www.imdb.com/title/tt4301160/
◎豆瓣评分 8.4/10 from 589 users
◎豆瓣链接 https://movie.douban.com/subject/35342065/
◎集  数 6
◎导  演 迈克尔·R·罗斯卡姆 Michael R. Roskam
◎编  剧 丹尼斯·勒翰 Dennis Lehane
◎主  演 塔伦·埃哲顿 Taron Egerton
       保罗·沃尔特·豪泽 Paul Walter Hauser
       塞皮德·莫阿菲 Sepideh Moafi
       格雷戈·金尼尔 Greg Kinnear
       雷·利奥塔 Ray Liotta
       罗伯特·迪亚戈·杜奇 Robert Diago DoQui
       亚历山大·巴巴拉 Alexander Babara
       劳伦斯·特纳 Lawrence Turner
       杰克·麦克劳克林 Jake McLaughlin
       克里斯托弗·B·邓肯 Christopher B. Duncan
       布兰顿·莫拉莱斯 Brandon Morales
       查尔斯·格林 Charles Green
       罗宾·马尔科姆 Robyn Malcolm
       库伦·莫斯 Cullen Moss
       詹姆斯·杜蒙特 James DuMont
       罗伯特·沃克·布兰乔德 Robert Walker Branchaud
       乔·威廉森 Joe Williamson
       迈克尔·艾伦·米利甘 Michael Aaron Milligan
       T·C·马特恩 T.C. Matherne
       安东尼·迈克尔·弗雷德里克 Anthony Michael Frederick
       Holly Bonney Holly Bonney
       John Jabaley John Jabaley

◎简  介

  詹姆斯·基内(塔伦·埃哲顿 饰)出生在芝加哥,是一名警察的儿子。他曾是一名出色的橄榄球球手,并朝着职业道路发展。而他犯的错使他被判10年监禁,无假释机会。检察官给他一个将功补过的机会,但风险很高。有一个叫拉里·霍尔(保罗·沃尔特·豪泽 饰)的人绑架和谋杀了一个15岁女孩,而这个女孩仅仅是他过往杀害的19名女性之一,由于证据不足,霍尔或将被释放,基内的任务就是在狱中让霍尔承认他的谋杀行为。
Video
ID : 1
Format : HEVC
Format/Info : High Efficiency Video Coding
Format profile : Main 10@L5@High
HDR format : SMPTE ST 2086, HDR10 compatible
Codec ID : V_MPEGH/ISO/HEVC
Duration : 1 h 0 min
Bit rate : 24.7 Mb/s
Width : 3 840 pixels
Height : 1 920 pixels
Display aspect ratio : 2.000
Frame rate mode : Constant
Frame rate : 23.976 FPS
Color space : YUV
Chroma subsampling : 4:2:0 (Type 2)
Bit depth : 10 bits
Bits/(Pixel*Frame) : 0.140
Stream size : 10.5 GiB (97%)
Default : Yes
Forced : No
Color range : Limited
Color primaries : BT.2020
Transfer characteristics : PQ
Matrix coefficients : BT.2020 non-constant
Mastering display color primaries : Display P3
Mastering display luminance : min: 0.0050 cd/m2, max: 1000 cd/m2
Maximum Content Light Level : 376 cd/m2
Maximum Frame-Average Light Level : 77 cd/m2

Audio
ID : 2
Format : E-AC-3 JOC
Format/Info : Enhanced AC-3 with Joint Object Coding
Commercial name : Dolby Digital Plus with Dolby Atmos
Codec ID : A_EAC3
Duration : 1 h 0 min
Bit rate mode : Constant
Bit rate : 768 kb/s
Channel(s) : 6 channels
Channel layout : L R C LFE Ls Rs
Sampling rate : 48.0 kHz
Frame rate : 31.250 FPS (1536 SPF)
Compression mode : Lossy
Stream size : 335 MiB (3%)
Language : English
Service kind : Complete Main
Default : Yes
Forced : No
Complexity index : 16
Number of dynamic objects : 15
Bed channel count : 1 channel
Bed channel configuration : LFE

Text #1
ID : 3
Format : UTF-8
Codec ID : S_TEXT/UTF8
Codec ID/Info : UTF-8 Plain Text
Duration : 56 min 36 s
Bit rate : 45 b/s
Frame rate : 0.188 FPS
Count of elements : 638
Stream size : 18.8 KiB (0%)
Language : English
Default : No
Forced : No

Text #2
ID : 4
Format : UTF-8
Codec ID : S_TEXT/UTF8
Codec ID/Info : UTF-8 Plain Text
Duration : 56 min 50 s
Bit rate : 52 b/s
Frame rate : 0.216 FPS
Count of elements : 738
Stream size : 21.9 KiB (0%)
Title : SDH
Language : English
Default : No
Forced : No

Text #3
ID : 5
Format : UTF-8
Codec ID : S_TEXT/UTF8
Codec ID/Info : UTF-8 Plain Text
Duration : 59 min 50 s
Bit rate : 60 b/s
Frame rate : 0.184 FPS
Count of elements : 661
Stream size : 26.6 KiB (0%)
Language : Arabic
Default : No
Forced : No

Text #4
ID : 6
Format : UTF-8
Codec ID : S_TEXT/UTF8
Codec ID/Info : UTF-8 Plain Text
Duration : 59 min 50 s
Bit rate : 65 b/s
Frame rate : 0.155 FPS
Count of elements : 555
Stream size : 28.6 KiB (0%)
Language : Bulgarian
Default : No
Forced : No

Text #5
ID : 7
Format : UTF-8
Codec ID : S_TEXT/UTF8
Codec ID/Info : UTF-8 Plain Text
Duration : 59 min 50 s
Bit rate : 41 b/s
Frame rate : 0.184 FPS
Count of elements : 662
Stream size : 18.3 KiB (0%)
Title : 中文(简体)
Language : 中文
Default : No
Forced : No


Text #6
ID : 8
Format : UTF-8
Codec ID : S_TEXT/UTF8
Codec ID/Info : UTF-8 Plain Text
Duration : 59 min 50 s
Bit rate : 43 b/s
Frame rate : 0.185 FPS
Count of elements : 663
Stream size : 19.3 KiB (0%)
Title : 中文(繁体)
Language : 中文
Default : No
Forced : No


Text #7
ID : 9
Format : UTF-8
Codec ID : S_TEXT/UTF8
Codec ID/Info : UTF-8 Plain Text
Duration : 59 min 50 s
Bit rate : 41 b/s
Frame rate : 0.174 FPS
Count of elements : 626
Stream size : 18.2 KiB (0%)
Language : Czech
Default : No
Forced : No

Text #8
ID : 10
Format : UTF-8
Codec ID : S_TEXT/UTF8
Codec ID/Info : UTF-8 Plain Text
Duration : 59 min 50 s
Bit rate : 44 b/s
Frame rate : 0.161 FPS
Count of elements : 579
Stream size : 19.3 KiB (0%)
Language : Danish
Default : No
Forced : No

Text #9
ID : 11
Format : UTF-8
Codec ID : S_TEXT/UTF8
Codec ID/Info : UTF-8 Plain Text
Duration : 59 min 31 s
Bit rate : 49 b/s
Frame rate : 0.165 FPS
Count of elements : 588
Stream size : 21.6 KiB (0%)
Language : German
Default : No
Forced : No

Text #10
ID : 12
Format : UTF-8
Codec ID : S_TEXT/UTF8
Codec ID/Info : UTF-8 Plain Text
Duration : 59 min 50 s
Bit rate : 73 b/s
Frame rate : 0.175 FPS
Count of elements : 630
Stream size : 32.3 KiB (0%)
Language : Greek
Default : No
Forced : No

Text #11
ID : 13
Format : UTF-8
Codec ID : S_TEXT/UTF8
Codec ID/Info : UTF-8 Plain Text
Duration : 59 min 50 s
Bit rate : 45 b/s
Frame rate : 0.184 FPS
Count of elements : 662
Stream size : 19.8 KiB (0%)
Title : Latin American
Language : Spanish
Default : No
Forced : No

Text #12
ID : 14
Format : UTF-8
Codec ID : S_TEXT/UTF8
Codec ID/Info : UTF-8 Plain Text
Duration : 59 min 50 s
Bit rate : 43 b/s
Frame rate : 0.176 FPS
Count of elements : 633
Stream size : 19.1 KiB (0%)
Title : European
Language : Spanish
Default : No
Forced : No

Text #13
ID : 15
Format : UTF-8
Codec ID : S_TEXT/UTF8
Codec ID/Info : UTF-8 Plain Text
Duration : 59 min 50 s
Bit rate : 42 b/s
Frame rate : 0.182 FPS
Count of elements : 654
Stream size : 18.5 KiB (0%)
Language : Estonian
Default : No
Forced : No

Text #14
ID : 16
Format : UTF-8
Codec ID : S_TEXT/UTF8
Codec ID/Info : UTF-8 Plain Text
Duration : 59 min 50 s
Bit rate : 41 b/s
Frame rate : 0.177 FPS
Count of elements : 636
Stream size : 18.0 KiB (0%)
Language : Finnish
Default : No
Forced : No

Text #15
ID : 17
Format : UTF-8
Codec ID : S_TEXT/UTF8
Codec ID/Info : UTF-8 Plain Text
Duration : 59 min 43 s
Bit rate : 43 b/s
Frame rate : 0.195 FPS
Count of elements : 700
Stream size : 18.9 KiB (0%)
Title : Canadian
Language : French
Default : No
Forced : No

Text #16
ID : 18
Format : UTF-8
Codec ID : S_TEXT/UTF8
Codec ID/Info : UTF-8 Plain Text
Duration : 59 min 31 s
Bit rate : 43 b/s
Frame rate : 0.196 FPS
Count of elements : 699
Stream size : 18.9 KiB (0%)
Language : French
Default : No
Forced : No

Text #17
ID : 19
Format : UTF-8
Codec ID : S_TEXT/UTF8
Codec ID/Info : UTF-8 Plain Text
Duration : 59 min 50 s
Bit rate : 60 b/s
Frame rate : 0.185 FPS
Count of elements : 663
Stream size : 26.4 KiB (0%)
Language : Hebrew
Default : No
Forced : No

Text #18
ID : 20
Format : UTF-8
Codec ID : S_TEXT/UTF8
Codec ID/Info : UTF-8 Plain Text
Duration : 59 min 50 s
Bit rate : 124 b/s
Frame rate : 0.185 FPS
Count of elements : 664
Stream size : 54.5 KiB (0%)
Language : Hindi
Default : No
Forced : No

Text #19
ID : 21
Format : UTF-8
Codec ID : S_TEXT/UTF8
Codec ID/Info : UTF-8 Plain Text
Duration : 59 min 50 s
Bit rate : 44 b/s
Frame rate : 0.183 FPS
Count of elements : 656
Stream size : 19.6 KiB (0%)
Language : Hungarian
Default : No
Forced : No

Text #20
ID : 22
Format : UTF-8
Codec ID : S_TEXT/UTF8
Codec ID/Info : UTF-8 Plain Text
Duration : 59 min 50 s
Bit rate : 43 b/s
Frame rate : 0.184 FPS
Count of elements : 659
Stream size : 18.9 KiB (0%)
Language : Indonesian
Default : No
Forced : No

Text #21
ID : 23
Format : UTF-8
Codec ID : S_TEXT/UTF8
Codec ID/Info : UTF-8 Plain Text
Duration : 59 min 31 s
Bit rate : 43 b/s
Frame rate : 0.183 FPS
Count of elements : 654
Stream size : 19.0 KiB (0%)
Language : Italian
Default : No
Forced : No

Text #22
ID : 24
Format : UTF-8
Codec ID : S_TEXT/UTF8
Codec ID/Info : UTF-8 Plain Text
Duration : 59 min 51 s
Bit rate : 38 b/s
Frame rate : 0.182 FPS
Count of elements : 654
Stream size : 16.8 KiB (0%)
Language : Japanese
Default : No
Forced : No

Text #23
ID : 25
Format : UTF-8
Codec ID : S_TEXT/UTF8
Codec ID/Info : UTF-8 Plain Text
Duration : 59 min 50 s
Bit rate : 49 b/s
Frame rate : 0.185 FPS
Count of elements : 664
Stream size : 21.8 KiB (0%)
Language : Korean
Default : No
Forced : No

Text #24
ID : 26
Format : UTF-8
Codec ID : S_TEXT/UTF8
Codec ID/Info : UTF-8 Plain Text
Duration : 59 min 50 s
Bit rate : 45 b/s
Frame rate : 0.182 FPS
Count of elements : 654
Stream size : 19.9 KiB (0%)
Language : Lithuanian
Default : No
Forced : No

Text #25
ID : 27
Format : UTF-8
Codec ID : S_TEXT/UTF8
Codec ID/Info : UTF-8 Plain Text
Duration : 59 min 50 s
Bit rate : 46 b/s
Frame rate : 0.181 FPS
Count of elements : 649
Stream size : 20.5 KiB (0%)
Language : Latvian
Default : No
Forced : No

Text #26
ID : 28
Format : UTF-8
Codec ID : S_TEXT/UTF8
Codec ID/Info : UTF-8 Plain Text
Duration : 59 min 50 s
Bit rate : 45 b/s
Frame rate : 0.184 FPS
Count of elements : 659
Stream size : 19.8 KiB (0%)
Language : Malay
Default : No
Forced : No

Text #27
ID : 29
Format : UTF-8
Codec ID : S_TEXT/UTF8
Codec ID/Info : UTF-8 Plain Text
Duration : 59 min 50 s
Bit rate : 41 b/s
Frame rate : 0.159 FPS
Count of elements : 572
Stream size : 18.1 KiB (0%)
Language : Dutch
Default : No
Forced : No

Text #28
ID : 30
Format : UTF-8
Codec ID : S_TEXT/UTF8
Codec ID/Info : UTF-8 Plain Text
Duration : 59 min 50 s
Bit rate : 41 b/s
Frame rate : 0.164 FPS
Count of elements : 588
Stream size : 18.4 KiB (0%)
Language : Norwegian
Default : No
Forced : No

Text #29
ID : 31
Format : UTF-8
Codec ID : S_TEXT/UTF8
Codec ID/Info : UTF-8 Plain Text
Duration : 59 min 50 s
Bit rate : 42 b/s
Frame rate : 0.180 FPS
Count of elements : 648
Stream size : 18.8 KiB (0%)
Language : Polish
Default : No
Forced : No

Text #30
ID : 32
Format : UTF-8
Codec ID : S_TEXT/UTF8
Codec ID/Info : UTF-8 Plain Text
Duration : 59 min 50 s
Bit rate : 42 b/s
Frame rate : 0.178 FPS
Count of elements : 638
Stream size : 18.7 KiB (0%)
Title : Brazilian
Language : Portuguese
Default : No
Forced : No

Text #31
ID : 33
Format : UTF-8
Codec ID : S_TEXT/UTF8
Codec ID/Info : UTF-8 Plain Text
Duration : 59 min 50 s
Bit rate : 44 b/s
Frame rate : 0.183 FPS
Count of elements : 657
Stream size : 19.6 KiB (0%)
Language : Portuguese
Default : No
Forced : No

Text #32
ID : 34
Format : UTF-8
Codec ID : S_TEXT/UTF8
Codec ID/Info : UTF-8 Plain Text
Duration : 59 min 50 s
Bit rate : 68 b/s
Frame rate : 0.185 FPS
Count of elements : 664
Stream size : 30.1 KiB (0%)
Language : Russian
Default : No
Forced : No

Text #33
ID : 35
Format : UTF-8
Codec ID : S_TEXT/UTF8
Codec ID/Info : UTF-8 Plain Text
Duration : 59 min 50 s
Bit rate : 42 b/s
Frame rate : 0.183 FPS
Count of elements : 656
Stream size : 18.6 KiB (0%)
Language : Slovak
Default : No
Forced : No

Text #34
ID : 36
Format : UTF-8
Codec ID : S_TEXT/UTF8
Codec ID/Info : UTF-8 Plain Text
Duration : 59 min 50 s
Bit rate : 37 b/s
Frame rate : 0.174 FPS
Count of elements : 625
Stream size : 16.6 KiB (0%)
Language : Slovenian
Default : No
Forced : No

Text #35
ID : 37
Format : UTF-8
Codec ID : S_TEXT/UTF8
Codec ID/Info : UTF-8 Plain Text
Duration : 59 min 50 s
Bit rate : 46 b/s
Frame rate : 0.174 FPS
Count of elements : 624
Stream size : 20.6 KiB (0%)
Language : Swedish
Default : No
Forced : No

Text #36
ID : 38
Format : UTF-8
Codec ID : S_TEXT/UTF8
Codec ID/Info : UTF-8 Plain Text
Duration : 59 min 50 s
Bit rate : 136 b/s
Frame rate : 0.185 FPS
Count of elements : 663
Stream size : 59.8 KiB (0%)
Language : Tamil
Default : No
Forced : No

Text #37
ID : 39
Format : UTF-8
Codec ID : S_TEXT/UTF8
Codec ID/Info : UTF-8 Plain Text
Duration : 59 min 50 s
Bit rate : 132 b/s
Frame rate : 0.185 FPS
Count of elements : 663
Stream size : 58.0 KiB (0%)
Language : Telugu
Default : No
Forced : No

Text #38
ID : 40
Format : UTF-8
Codec ID : S_TEXT/UTF8
Codec ID/Info : UTF-8 Plain Text
Duration : 59 min 50 s
Bit rate : 113 b/s
Frame rate : 0.185 FPS
Count of elements : 663
Stream size : 49.9 KiB (0%)
Language : Thai
Default : No
Forced : No

Text #39
ID : 41
Format : UTF-8
Codec ID : S_TEXT/UTF8
Codec ID/Info : UTF-8 Plain Text
Duration : 59 min 50 s
Bit rate : 44 b/s
Frame rate : 0.183 FPS
Count of elements : 656
Stream size : 19.6 KiB (0%)
Language : Turkish
Default : No
Forced : No

Text #40
ID : 42
Format : UTF-8
Codec ID : S_TEXT/UTF8
Codec ID/Info : UTF-8 Plain Text
Duration : 59 min 50 s
Bit rate : 66 b/s
Frame rate : 0.185 FPS
Count of elements : 664
Stream size : 29.0 KiB (0%)
Language : Ukrainian
Default : No
Forced : No

Text #41
ID : 43
Format : UTF-8
Codec ID : S_TEXT/UTF8
Codec ID/Info : UTF-8 Plain Text
Duration : 59 min 50 s
Bit rate : 60 b/s
Frame rate : 0.184 FPS
Count of elements : 661
Stream size : 26.3 KiB (0%)
Language : Vietnamese
Default : No
Forced : No

Text #42
ID : 44
Format : UTF-8
Codec ID : S_TEXT/UTF8
Codec ID/Info : UTF-8 Plain Text
Duration : 59 min 50 s
Bit rate : 39 b/s
Frame rate : 0.185 FPS
Count of elements : 663
Stream size : 17.5 KiB (0%)
Title : 中文(粤语)
Language : 中文
Default : No
Forced : No

下载地址:

游客,如果您要查看本帖隐藏内容请回复

游客,如果您要查看本帖隐藏内容请回复

游客,如果您要查看本帖隐藏内容请回复

游客,如果您要查看本帖隐藏内容请回复







上一篇:送报女孩 [简繁中字]/Paper Girls (2022)第一季全/4K高清版本下载
下一篇:健身世界[简繁粤中字]/Physical (2022)第二季全/4K高清版本下载
回复

使用道具 举报

5

主题

1389

帖子

4009

积分

4K家园VIP

Rank: 9Rank: 9Rank: 9

积分
4009
发表于 2022-8-8 21:32:31 | 显示全部楼层
前排顶,很好!
回复 支持 反对

使用道具 举报

39

主题

1494

帖子

4278

积分

4K家园VIP

Rank: 9Rank: 9Rank: 9

积分
4278
发表于 2022-8-8 21:45:35 | 显示全部楼层
发发呆,回回帖,工作结束~
回复 支持 反对

使用道具 举报

46

主题

1459

帖子

4205

积分

4K家园VIP

Rank: 9Rank: 9Rank: 9

积分
4205
发表于 2022-8-9 00:26:17 来自手机 | 显示全部楼层
占位编辑
回复 支持 反对

使用道具 举报

0

主题

1241

帖子

3737

积分

4K家园VIP

Rank: 9Rank: 9Rank: 9

积分
3737
发表于 2022-8-9 01:49:43 | 显示全部楼层
我了个去,顶了
回复 支持 反对

使用道具 举报

5

主题

1504

帖子

4356

积分

4K家园VIP

Rank: 9Rank: 9Rank: 9

积分
4356
发表于 2022-8-9 02:29:49 来自手机 | 显示全部楼层
占位编辑
回复 支持 反对

使用道具 举报

0

主题

2

帖子

19

积分

新手上路

Rank: 1

积分
19
发表于 2022-8-10 09:45:57 | 显示全部楼层
haokan
回复

使用道具 举报

0

主题

4

帖子

15

积分

新手上路

Rank: 1

积分
15
发表于 2022-8-10 23:42:37 | 显示全部楼层
支持一下等升级
回复 支持 反对

使用道具 举报

0

主题

8668

帖子

2万

积分

4K家园VIP

Rank: 9Rank: 9Rank: 9

积分
20210
发表于 2022-8-11 08:15:26 | 显示全部楼层
太好啦&萬分感謝版主的無私發佈分享%
回复 支持 反对

使用道具 举报

0

主题

5

帖子

111

积分

新手上路

Rank: 1

积分
111
发表于 2022-8-16 18:01:57 | 显示全部楼层
感谢分享
回复

使用道具 举报

您需要登录后才可以回帖 登录 | 立即注册

本版积分规则

精彩图文
Archiver|手机版|TAG|Sitemap|新帖|专题|联系我们:邮箱: 4kjia.com@gmail.com   

4k家园   ©2019