成为伊丽莎白 / Becoming Elizabeth (2022) 第一季全/4K高清版本下载

[复制链接]

205

主题

228

帖子

2261

积分

版主

Rank: 7Rank: 7Rank: 7

积分
2261
 楼主| 发表于 2022-8-8 21:58:04 | 显示全部楼层 |阅读模式
p2871869712_副本.jpg

◎译  名 成为伊丽莎白
◎片  名 Becoming Elizabeth
◎年  代 2022
◎产  地 美国
◎类  别 剧情
◎语  言 英语
◎上映日期 2022-06-12(美国)
◎IMDb评分 6.7/10 from 1193 users
◎IMDb链接 https://www.imdb.com/title/tt11444366/
◎豆瓣评分 0/10 from 0 users
◎豆瓣链接 https://douban.com/subject/35235718/
◎集  数 8
◎导  演 贾斯汀·查德维克 Justin Chadwick / 凯瑟琳·莫斯海德 Catherine Morshead / 乌达扬·普拉萨德 Udayan Prasad
◎编  剧 艾米丽·巴鲁 Emily Ballou
◎主  演 艾丽西娅·冯·里特贝格 Alicia von Rittberg
       杰米·帕克 Jamie Parker
       贝拉·拉姆齐 Bella Ramsey
       杰西卡·雷恩 Jessica Raine
       汤姆·库伦 Tom Cullen
       萝玛拉·嘉瑞 Romola Garai
       里奥·比尔 Leo Bill
       杰米·布莱克利 Jamie Blackley
       亚历克斯·麦奎因 Alex Macqueen
       约翰·赫夫南 John Heffernan
       马修·斯蒂尔 Matthew Steer
       Ekow Quartey Ekow Quartey
       亚历山德拉·吉尔布雷斯 Alexandra Gilbreath
       奥利弗·泽特斯特姆 Oliver Zetterström
       奥利维尔·体班德 Olivier Huband
       罗伯特·怀特洛克 Robert Whitelock
       尼古拉斯·毕绍普 Nicholas Bishop
       爱德华E.沃特 Edward E. White
       理查德·劳埃德·奈特 Richard Lloyd-Knight
       艾琳·安斯沃思 Erin Ainsworth
       波·拉杰 Bo Poraj


◎简  介

  本剧将刻画伊丽莎白一世的早年人生,聚焦年轻的孤女伊丽莎白·都铎,在走向王位的过程中,卷入了英国宫廷权力和性别政治的斗争中。

  亨利八世去世后,他九岁的儿子爱德华登上王位,由此引发了一场危险的权力争夺战。伊丽莎白、爱德华,以及他们的姐姐玛丽发现,在英格兰大家族和试图夺取英国掌控权的欧洲列强的这场博弈中,三人成了棋子。

Video
ID : 1
Format : HEVC
Format/Info : High Efficiency Video Coding
Format profile : Main@L5@High
Codec ID : V_MPEGH/ISO/HEVC
Duration : 58 min 42 s
Bit rate : 14.2 Mb/s
Width : 3 840 pixels
Height : 2 160 pixels
Display aspect ratio : 16:9
Frame rate mode : Constant
Frame rate : 23.976 (24000/1001) FPS
Color space : YUV
Chroma subsampling : 4:2:0
Bit depth : 8 bits
Bits/(Pixel*Frame) : 0.071
Stream size : 5.81 GiB (97%)
Language : English
Default : Yes
Forced : No
Color range : Limited
Color primaries : BT.709
Transfer characteristics : BT.709
Matrix coefficients : BT.709

Audio
ID : 2
Format : AC-3
Format/Info : Audio Coding 3
Commercial name : Dolby Digital
Codec ID : A_AC3
Duration : 58 min 42 s
Bit rate mode : Constant
Bit rate : 384 kb/s
Channel(s) : 6 channels
Channel layout : L R C LFE Ls Rs
Sampling rate : 48.0 kHz
Frame rate : 31.250 FPS (1536 SPF)
Compression mode : Lossy
Stream size : 161 MiB (3%)
Language : English
Service kind : Complete Main
Default : Yes
Forced : No

Text
ID : 3
Format : UTF-8
Codec ID : S_TEXT/UTF8
Codec ID/Info : UTF-8 Plain Text
Duration : 57 min 56 s
Bit rate : 67 b/s
Frame rate : 0.322 FPS
Count of elements : 1119
Stream size : 28.5 KiB (0%)
Title : CC
Language : English
Default : No
Forced : No


下载地址:

游客,如果您要查看本帖隐藏内容请回复






上一篇:健身世界[简繁粤中字]/Physical (2022)第二季全/4K高清版本下载
下一篇:为全人类 [简繁粤中字] (2022)第一至三季全/4K高清版本下载
回复

使用道具 举报

44

主题

1497

帖子

4335

积分

4K家园VIP

Rank: 9Rank: 9Rank: 9

积分
4335
发表于 2022-8-8 21:58:40 | 显示全部楼层
好帖必须得顶起
回复 支持 反对

使用道具 举报

3

主题

1400

帖子

4224

积分

4K家园VIP

Rank: 9Rank: 9Rank: 9

积分
4224
发表于 2022-8-19 12:18:20 | 显示全部楼层
呵呵。。。
回复 支持 反对

使用道具 举报

1

主题

1290

帖子

3888

积分

4K家园VIP

Rank: 9Rank: 9Rank: 9

积分
3888
发表于 2022-8-20 06:45:39 来自手机 | 显示全部楼层
正好需要啊
回复 支持 反对

使用道具 举报

0

主题

1

帖子

6

积分

新手上路

Rank: 1

积分
6
发表于 2022-8-21 03:41:54 | 显示全部楼层
好贴必须顶
回复 支持 反对

使用道具 举报

1

主题

1434

帖子

4112

积分

4K家园VIP

Rank: 9Rank: 9Rank: 9

积分
4112
发表于 2022-8-26 19:39:26 | 显示全部楼层
支持支持再支持
回复 支持 反对

使用道具 举报

0

主题

8663

帖子

2万

积分

4K家园VIP

Rank: 9Rank: 9Rank: 9

积分
20189
发表于 2022-8-26 21:13:51 | 显示全部楼层
太好啦&萬分感謝版主的無私發佈分享%
回复 支持 反对

使用道具 举报

0

主题

3

帖子

12

积分

新手上路

Rank: 1

积分
12
发表于 2022-8-26 23:20:10 来自手机 | 显示全部楼层
kankan
回复

使用道具 举报

2

主题

1681

帖子

4683

积分

4K家园VIP

Rank: 9Rank: 9Rank: 9

积分
4683
发表于 2022-8-27 19:01:27 | 显示全部楼层
LZ是天才,坚定完毕
回复 支持 反对

使用道具 举报

您需要登录后才可以回帖 登录 | 立即注册

本版积分规则

精彩图文
Archiver|手机版|TAG|Sitemap|新帖|专题|联系我们:邮箱: 4kjia.com@gmail.com   

4k家园   ©2019