[4K电影] [纪录片] 海洋视野:珍贵鱼类 50fps (2017) 4K高清版本下载

[复制链接]

2856

主题

3223

帖子

2万

积分

超级版主

Rank: 8Rank: 8

积分
27260
 楼主| 发表于 2022-8-10 10:49:56 | 显示全部楼层 |阅读模式
本帖最后由 叽里呱啦 于 2022-8-10 10:50 编辑

8299b66b8bf8d6497575511466b58643_副本.jpg

国家: 美国
类型: 纪录片、自然、视觉
片长 : 00:53:12
导演: 霍华德·哈尔 / Howard Hall

简    介:

       艾美奖得主的水下摄影。一个窗口,可以看到生活在热带和东太平洋珊瑚礁上的无数最美丽的鱼类。这部电影捕捉了马尔代夫、斐济、菲律宾、墨西哥、加利福尼亚和印度尼西亚的海底世界之美。

Complete name               : L:\Фильмы\Wild Window_Bejeweled Fishes.mkv
Format                      : Matroska
Format version              : Version 4
File size                   : 5.98 GiB
Duration                    : 53 min 12 s
Overall bit rate            : 16.1 Mb/s
Encoded date                : UTC 2022-08-04 13:18:22
Writing application         : mkvmerge v60.0.0 ('Are We Copies?') 32-bit
Writing library             : libebml v1.4.2 + libmatroska v1.6.4

Video
ID                          : 1
Format                      : HEVC
Format/Info                 : High Efficiency Video Coding
Format profile              : Main 10@L5.1@Main
Codec ID                    : V_MPEGH/ISO/HEVC
Duration                    : 53 min 12 s
Bit rate                    : 15.9 Mb/s
Width                       : 3 840 pixels
Height                      : 2 160 pixels
Display aspect ratio        : 16:9
Frame rate mode             : Constant
Frame rate                  : 50.000 FPS
Standard                    : Component
Color space                 : YUV
Chroma subsampling          : 4:2:0 (Type 0)
Bit depth                   : 10 bits
Bits/(Pixel*Frame)          : 0.038
Stream size                 : 5.90 GiB (99%)
Default                     : Yes
Forced                      : No
Color range                 : Limited
Color primaries             : BT.709
Transfer characteristics    : BT.709
Matrix coefficients         : BT.709

Audio
ID                          : 2
Format                      : AAC LC
Format/Info                 : Advanced Audio Codec Low Complexity
Codec ID                    : A_AAC-2
Duration                    : 53 min 12 s
Bit rate                    : 192 kb/s
Channel(s)                  : 2 channels
Channel layout              : L R
Sampling rate               : 48.0 kHz
Frame rate                  : 46.875 FPS (1024 SPF)
Compression mode            : Lossy
Delay relative to video     : 48 ms
Stream size                 : 72.1 MiB (1%)
Language                    : Russian
Default                     : Yes
Forced                      : No

Wild Window_Bejeweled Fishes.mkv_20220810_103309.441.jpg Wild Window_Bejeweled Fishes.mkv_20220810_103333.224.jpg Wild Window_Bejeweled Fishes.mkv_20220810_103339.744.jpg Wild Window_Bejeweled Fishes.mkv_20220810_103358.928.jpg Wild Window_Bejeweled Fishes.mkv_20220810_103409.072.jpg Wild Window_Bejeweled Fishes.mkv_20220810_103427.673.jpg Wild Window_Bejeweled Fishes.mkv_20220810_103442.640.jpg Wild Window_Bejeweled Fishes.mkv_20220810_103458.024.jpg Wild Window_Bejeweled Fishes.mkv_20220810_103503.728.jpg Wild Window_Bejeweled Fishes.mkv_20220810_103515.088.jpg Wild Window_Bejeweled Fishes.mkv_20220810_103526.593.jpg Wild Window_Bejeweled Fishes.mkv_20220810_103547.168.jpg

下载地址:

****此区域为收费内容****    需支付 30 金币后可查看立即购买

4K资源 4K电视上体验最佳效果!



上一篇:猫王 [简繁中字] / Elvis (2022) 4K高清版本下载
下一篇:[纪录片] 海洋视野:海底世界 50fps (2018) 4K高清版本下载
回复

使用道具 举报

70

主题

1555

帖子

4537

积分

4K家园VIP

Rank: 9Rank: 9Rank: 9

积分
4537
发表于 2022-8-10 10:50:00 | 显示全部楼层
前排支持下
回复 支持 反对

使用道具 举报

49

主题

1555

帖子

4497

积分

4K家园VIP

Rank: 9Rank: 9Rank: 9

积分
4497
发表于 2022-8-10 10:50:00 | 显示全部楼层
我了个去,顶了
回复 支持 反对

使用道具 举报

0

主题

8663

帖子

2万

积分

4K家园VIP

Rank: 9Rank: 9Rank: 9

积分
20189
发表于 2022-8-10 12:42:34 | 显示全部楼层
海洋視野★珍貴魚類4k
回复 支持 反对

使用道具 举报

0

主题

42

帖子

1931

积分

4K家园VIP

Rank: 9Rank: 9Rank: 9

积分
1931
发表于 2022-8-10 15:17:54 | 显示全部楼层
郝,纪录片我最爱,谢谢。
回复 支持 反对

使用道具 举报

2

主题

264

帖子

3278

积分

中级会员

Rank: 4

积分
3278
发表于 2022-8-11 08:21:14 | 显示全部楼层
我爱纪录片            
回复 支持 反对

使用道具 举报

0

主题

69

帖子

300

积分

新手上路

Rank: 1

积分
300
发表于 2022-8-11 11:31:23 | 显示全部楼层
感谢分享!
回复

使用道具 举报

0

主题

1376

帖子

4142

积分

4K家园VIP

Rank: 9Rank: 9Rank: 9

积分
4142
发表于 2022-8-11 12:36:43 | 显示全部楼层
LZ敢整点更有创意的不?兄弟们等着围观捏~
回复 支持 反对

使用道具 举报

40

主题

1561

帖子

4473

积分

4K家园VIP

Rank: 9Rank: 9Rank: 9

积分
4473
发表于 2022-8-13 10:52:12 | 显示全部楼层
4K家园不错,希望这种资源越多越好
回复 支持 反对

使用道具 举报

0

主题

1668

帖子

4634

积分

4K家园VIP

Rank: 9Rank: 9Rank: 9

积分
4634
发表于 2022-8-14 04:59:33 | 显示全部楼层
元芳你怎么看?
回复 支持 反对

使用道具 举报

您需要登录后才可以回帖 登录 | 立即注册

本版积分规则

精彩图文
Archiver|手机版|TAG|Sitemap|新帖|专题|联系我们:邮箱: 4kjia.com@gmail.com   

4k家园   ©2019