[4K电影] [纪录片] 海洋视野:海底世界 50fps (2018) 4K高清版本下载

[复制链接]

2856

主题

3223

帖子

2万

积分

超级版主

Rank: 8Rank: 8

积分
27260
 楼主| 发表于 2022-9-18 21:22:56 | 显示全部楼层 |阅读模式
本帖最后由 叽里呱啦 于 2022-8-10 12:19 编辑

6ac73db74b4c92ebe32cc99486a7d470_副本.jpg 6.23GB

发行年份: 2018
国家: 美国
类型: 纪录片、自然、视角
片长 : 00:57:06
翻译: 不需要
导演: 霍华德·哈尔 / Howard Hall

简    介:

         六次艾美奖得主的水下摄影。让自己沉浸在海底的奇妙世界中,那里生活着最不寻常的鱼类和动物:五颜六色的珊瑚、可怕的螃蟹、巨大的鲨鱼和巨大的鳐鱼……艾伦·威廉姆斯的音乐令人叹为观止。
MediaInfo

Complete name               : D:\Торренты\Фильмы\Документальные\Wild Window_Beneath the Sea.mkv
Format                      : Matroska
Format version              : Version 4
File size                   : 6.23 GiB
Duration                    : 57 min 6 s
Overall bit rate            : 15.6 Mb/s
Encoded date                : UTC 2022-07-13 13:51:12
Writing application         : mkvmerge v60.0.0 ('Are We Copies?') 32-bit
Writing library             : libebml v1.4.2 + libmatroska v1.6.4

Video
ID                          : 1
Format                      : HEVC
Format/Info                 : High Efficiency Video Coding
Format profile              : Main 10@L5.1@Main
Codec ID                    : V_MPEGH/ISO/HEVC
Duration                    : 57 min 6 s
Bit rate                    : 15.4 Mb/s
Width                       : 3 840 pixels
Height                      : 2 160 pixels
Display aspect ratio        : 16:9
Frame rate mode             : Constant
Frame rate                  : 50.000 FPS
Standard                    : Component
Color space                 : YUV
Chroma subsampling          : 4:2:0 (Type 0)
Bit depth                   : 10 bits
Bits/(Pixel*Frame)          : 0.037
Stream size                 : 6.15 GiB (99%)
Default                     : Yes
Forced                      : No
Color range                 : Limited
Color primaries             : BT.709
Transfer characteristics    : BT.709
Matrix coefficients         : BT.709

Audio
ID                          : 2
Format                      : AAC LC
Format/Info                 : Advanced Audio Codec Low Complexity
Codec ID                    : A_AAC-2
Duration                    : 57 min 6 s
Bit rate                    : 192 kb/s
Channel(s)                  : 2 channels
Channel layout              : L R
Sampling rate               : 48.0 kHz
Frame rate                  : 46.875 FPS (1024 SPF)
Compression mode            : Lossy
Delay relative to video     : 84 ms
Stream size                 : 77.4 MiB (1%)
Language                    : Russian
Default                     : Yes
Forced                      : No
Wild Window_Beneath the Sea.mkv_20220810_121602.170.jpg Wild Window_Beneath the Sea.mkv_20220810_121609.763.jpg Wild Window_Beneath the Sea.mkv_20220810_121618.211.jpg Wild Window_Beneath the Sea.mkv_20220810_121627.148.jpg Wild Window_Beneath the Sea.mkv_20220810_121646.130.jpg Wild Window_Beneath the Sea.mkv_20220810_121651.691.jpg Wild Window_Beneath the Sea.mkv_20220810_121704.707.jpg Wild Window_Beneath the Sea.mkv_20220810_121722.258.jpg Wild Window_Beneath the Sea.mkv_20220810_121729.283.jpg Wild Window_Beneath the Sea.mkv_20220810_121735.738.jpg Wild Window_Beneath the Sea.mkv_20220810_121743.612.jpg Wild Window_Beneath the Sea.mkv_20220810_121752.307.jpg

下载地址:

****此区域为收费内容****    需支付 30 金币后可查看立即购买






上一篇:[纪录片] 海洋视野:珍贵鱼类 50fps (2017) 4K高清版本下载
下一篇:[纪录片] 海洋视野:鲸鱼 50fps (2017) 4K高清版本下载
回复

使用道具 举报

3

主题

1331

帖子

3799

积分

4K家园VIP

Rank: 9Rank: 9Rank: 9

积分
3799
发表于 2022-9-18 21:23:00 | 显示全部楼层
楼主呀,,,您太有才了。。。
回复 支持 反对

使用道具 举报

1

主题

1321

帖子

3979

积分

4K家园VIP

Rank: 9Rank: 9Rank: 9

积分
3979
发表于 2022-9-18 21:53:29 | 显示全部楼层
专业抢沙发的!哈哈
回复 支持 反对

使用道具 举报

0

主题

8663

帖子

2万

积分

4K家园VIP

Rank: 9Rank: 9Rank: 9

积分
20189
发表于 2022-9-18 23:10:27 | 显示全部楼层
太好啦&萬分感謝版主的無私發佈分享%
回复 支持 反对

使用道具 举报

48

主题

1608

帖子

4640

积分

4K家园VIP

Rank: 9Rank: 9Rank: 9

积分
4640
发表于 2022-9-21 05:24:44 | 显示全部楼层
体验下4K版的
回复 支持 反对

使用道具 举报

0

主题

18

帖子

38

积分

新手上路

Rank: 1

积分
38
发表于 2022-9-21 06:30:39 | 显示全部楼层
体验下4K版的
回复 支持 反对

使用道具 举报

3

主题

1725

帖子

4769

积分

4K家园VIP

Rank: 9Rank: 9Rank: 9

积分
4769
发表于 2022-9-23 11:27:48 | 显示全部楼层
垃圾
回复 支持 反对

使用道具 举报

51

主题

1542

帖子

4432

积分

4K家园VIP

Rank: 9Rank: 9Rank: 9

积分
4432
发表于 2022-9-23 20:45:35 | 显示全部楼层
我只是路过,不发表意见
回复 支持 反对

使用道具 举报

您需要登录后才可以回帖 登录 | 立即注册

本版积分规则

精彩图文
Archiver|手机版|TAG|Sitemap|新帖|专题|联系我们:邮箱: 4kjia.com@gmail.com   

4k家园   ©2019