[4K电影] [纪录片] 海洋视野:鲸鱼 50fps (2017) 4K高清版本下载

[复制链接]

2856

主题

3223

帖子

2万

积分

超级版主

Rank: 8Rank: 8

积分
27260
 楼主| 发表于 2022-8-13 11:19:02 | 显示全部楼层 |阅读模式
本帖最后由 叽里呱啦 于 2022-8-10 12:14 编辑

83170effee84b63632da4d84ddc920c3_副本.jpg

发行年份: 2017
国家: 美国
制片厂: Howard Hall Productions
类型: 纪录片、自然、视觉
片长 : 00:56:29
翻译: 不需要
导演: 霍华德·哈尔 / Howard Hall

简    介:

         六次艾美奖得主的水下摄影。在这个系列中,观众将潜入海洋,观看地球上最大的动物——鲸鱼。随着艾伦·威廉姆斯的音乐,您将看到现代座头鲸、抹香鲸和令人难以置信的蓝鲸。

Complete name               : L:\Фильмы\Wild Window_Whales.mkv
Format                      : Matroska
Format version              : Version 4
File size                   : 6.22 GiB
Duration                    : 56 min 29 s
Overall bit rate            : 15.8 Mb/s
Encoded date                : UTC 2022-08-07 05:27:59
Writing application         : mkvmerge v60.0.0 ('Are We Copies?') 32-bit
Writing library             : libebml v1.4.2 + libmatroska v1.6.4

Video
ID                          : 1
Format                      : HEVC
Format/Info                 : High Efficiency Video Coding
Format profile              : Main 10@L5.1@Main
Codec ID                    : V_MPEGH/ISO/HEVC
Duration                    : 56 min 29 s
Bit rate                    : 15.6 Mb/s
Width                       : 3 840 pixels
Height                      : 2 160 pixels
Display aspect ratio        : 16:9
Frame rate mode             : Constant
Frame rate                  : 50.000 FPS
Standard                    : Component
Color space                 : YUV
Chroma subsampling          : 4:2:0 (Type 0)
Bit depth                   : 10 bits
Bits/(Pixel*Frame)          : 0.038
Stream size                 : 6.14 GiB (99%)
Default                     : Yes
Forced                      : No
Color range                 : Limited
Color primaries             : BT.709
Transfer characteristics    : BT.709
Matrix coefficients         : BT.709

Audio
ID                          : 2
Format                      : AAC LC
Format/Info                 : Advanced Audio Codec Low Complexity
Codec ID                    : A_AAC-2
Duration                    : 56 min 29 s
Bit rate                    : 192 kb/s
Channel(s)                  : 2 channels
Channel layout              : L R
Sampling rate               : 48.0 kHz
Frame rate                  : 46.875 FPS (1024 SPF)
Compression mode            : Lossy
Stream size                 : 76.5 MiB (1%)
Language                    : Russian
Default                     : Yes
Forced                      : No
Wild Window_Whales.mkv_20220810_121055.122.jpg Wild Window_Whales.mkv_20220810_121141.803.jpg Wild Window_Whales.mkv_20220810_121147.395.jpg Wild Window_Whales.mkv_20220810_121159.355.jpg Wild Window_Whales.mkv_20220810_121209.538.jpg Wild Window_Whales.mkv_20220810_121221.771.jpg Wild Window_Whales.mkv_20220810_121233.739.jpg Wild Window_Whales.mkv_20220810_121241.603.jpg

下载地址:

****此区域为收费内容****    需支付 30 金币后可查看立即购买






上一篇:[纪录片] 海洋视野:海底世界 50fps (2018) 4K高清版本下载
下一篇:[纪录片] 海洋视野:珊瑚王国 50fps (2017) 4K高清版本下载
回复

使用道具 举报

4

主题

1323

帖子

3989

积分

4K家园VIP

Rank: 9Rank: 9Rank: 9

积分
3989
发表于 2022-8-13 11:19:06 | 显示全部楼层
介是神马?!!
回复 支持 反对

使用道具 举报

0

主题

8663

帖子

2万

积分

4K家园VIP

Rank: 9Rank: 9Rank: 9

积分
20189
发表于 2022-8-13 11:23:18 | 显示全部楼层
海洋視野★鲸魚4k
回复 支持 反对

使用道具 举报

1

主题

1332

帖子

4016

积分

4K家园VIP

Rank: 9Rank: 9Rank: 9

积分
4016
发表于 2022-8-13 14:08:31 | 显示全部楼层
还有没有别的资源,多分享些
回复 支持 反对

使用道具 举报

1

主题

1428

帖子

4100

积分

4K家园VIP

Rank: 9Rank: 9Rank: 9

积分
4100
发表于 2022-8-14 00:37:21 | 显示全部楼层
感谢楼主的分享,还是阔以滴
回复 支持 反对

使用道具 举报

3

主题

1725

帖子

4769

积分

4K家园VIP

Rank: 9Rank: 9Rank: 9

积分
4769
发表于 2022-8-14 16:42:29 来自手机 | 显示全部楼层
佩服佩服!
回复 支持 反对

使用道具 举报

1

主题

1400

帖子

4030

积分

4K家园VIP

Rank: 9Rank: 9Rank: 9

积分
4030
发表于 2022-8-15 18:36:15 | 显示全部楼层
边撸边过
回复 支持 反对

使用道具 举报

0

主题

10

帖子

28

积分

新手上路

Rank: 1

积分
28
发表于 2022-9-8 00:06:58 来自手机 | 显示全部楼层
感谢分享
回复

使用道具 举报

您需要登录后才可以回帖 登录 | 立即注册

本版积分规则

精彩图文
Archiver|手机版|TAG|Sitemap|新帖|专题|联系我们:邮箱: 4kjia.com@gmail.com   

4k家园   ©2019