[4K电影] 杀人回忆 / 살인의 추억 (2003) 4K高清版本下载

[复制链接]

主题

帖子

0

积分

超级版主

Rank: 8Rank: 8

积分
0
 楼主| 发表于 2022-8-12 10:12:43 | 显示全部楼层 |阅读模式

QQ图片20220812101010_副本.png

◎译  名 杀人回忆/Memories of Murder/Salinui chueok/杀手回忆录/谋杀回忆
◎片  名 ??? ??
◎年  代 2003
◎产  地 韩国
◎类  别 剧情 / 动作 / 悬疑 / 惊悚 / 犯罪
◎语  言 韩语,英语
◎上映日期 2003-05-02(韩国)
◎IMDb评分 8.1/10 from 178183 users
◎IMDb链接 https://www.imdb.com/title/tt0353969/
◎豆瓣评分 8.9/10 from 647233 users
◎豆瓣链接 https://movie.douban.com/subject/1300299/
◎片  长 132分钟
◎导  演 奉俊昊 Joon-ho Bong
◎编  剧 奉俊昊 Joon-ho Bong / 金光林 Kwang-rim Kim / 沈成宝 Sung Bo Shim
◎主  演 宋康昊 Kang-ho Song
       金相庆 Sang-kyung Kim
       金雷夏 Roe-ha Kim
       宋在浩 Jae-ho Song
       边希峰 Hie-bong Byeon
       高瑞熙 Seo-hie Ko
       柳泰浩 Tae-ho Ryu
       朴努植 No-shik Park
       朴海日 Hae-il Park
       全美善 Mi-seon Jeon
       徐永嬅 Young-hwa Seo
       崔钟律 Jong-ryeol Choi
       刘承睦 Yoo Seung-Mok
       申贤宗 Hyeon-jong Sin
       李在应 Jae-eung Lee
       郑仁仙 In-sun Jung
       吴龙 Young Oh
       朴真宇 Jin-woo Park
       朴泰京 Tae-kyeong Park
       沈成宝 Sung Bo Shim
       朴镇宇 Park Jin-woo
       廉惠兰 Yum Hye-ran
       Joo-ryeong Kim
       李东勇 Lee Dong-yong
       赵德济 Jo Duk-je
       申文成 Mun-sung Shin
       孙康国 Kang-gook Son
       李大贤 Dae-hyeon Lee
       李玉珠 Wok-joo Lee
       刘仁秀 In-soo Yoo
       千明宰 Myung-Jae Cheon
       郭秀贞 Soo-Jeong Kwak
       曹文义 Moon-ui Jo
       朴贤英 Hyun-young Park
       申贤胜 Hyun-seung Shin
       權炳吉 Kwon Byung-gil
       金熙珍 Hie-Jin Kim
       崔铉基 Hyun-Ki Choi
       金荷景 Ha-kyung Kim
       金景来 Kyung-rae Kim
       金景来 Kyung-rae Kim
       白奉基 Bong-Gi Baek
       孙镇浩 Jin-ho Son
       金周灵 Joo-ryeong Kim
       刘琴 Keum Yoo
       禹高娜 Go-Na Woo
       李勋京 Hun-Kyung Lee
       申云燮 Woon-Seop Shin
       李江山 Kang-sang Lee


◎简  介

  1986年,韩国京畿道华城郡,热得发昏的夏天,在田野边发现一具女尸,早已发臭。小镇警察朴探员(宋康昊饰)和汉城来的苏探员(金相庆饰)接手案件,唯一可证实的是这具女尸生前被强奸过。线索的严重缺乏让毫无经验的朴探员和搭档曹探员(金罗河饰)只凭粗暴逼供和第六感推断,几次将犯罪 嫌疑人屈打成招。而苏探员客观冷静,据理分析,几次排除嫌疑,警察内部为了证明与推翻矛盾不断,然而无辜女子还是接二连三被残忍杀害,他们只好达成共识一起合作。此时,一个极其符合作案特征的小青年(朴海日饰)成为最大嫌疑人,警方神经绷紧地锁定住他,同时DNA检测报告也被送往美国,然而案件并未在此处停止。

◎获奖情况

  第16届东京国际电影节  (2003)
  亚洲之风最佳亚洲电影 奉俊昊

  第51届圣塞巴斯蒂安国际电影节  (2003)
  金贝壳奖(提名) 奉俊昊
  最佳导演银贝壳奖 奉俊昊
  最佳新导演 奉俊昊
  费比西影评人奖 奉俊昊

Video
ID : 1
Format : HEVC
Format/Info : High Efficiency Video Coding
Format profile : Main 10@L5@High
Codec ID : V_MPEGH/ISO/HEVC
Duration : 2 h 10 min
Bit rate : 24.7 Mb/s
Width : 3 840 pixels
Height : 2 160 pixels
Display aspect ratio : 16:9
Frame rate mode : Constant
Frame rate : 23.976 (24000/1001) FPS
Color space : YUV
Chroma subsampling : 4:2:0 (Type 2)
Bit depth : 10 bits
Bits/(Pixel*Frame) : 0.124
Stream size : 22.6 GiB (82%)
Default : Yes
Forced : No
Color range : Limited
Color primaries : BT.709
Transfer characteristics : BT.709
Matrix coefficients : BT.709

Audio #1
ID : 2
Format : DTS XLL
Format/Info : Digital Theater Systems
Commercial name : DTS-HD Master Audio
Codec ID : A_DTS
Duration : 2 h 10 min
Bit rate mode : Variable
Bit rate : 4 107 kb/s
Channel(s) : 6 channels
Channel layout : C L R Ls Rs LFE
Sampling rate : 48.0 kHz
Frame rate : 93.750 FPS (512 SPF)
Bit depth : 24 bits
Compression mode : Lossless
Delay relative to video : 2 ms
Stream size : 3.76 GiB (14%)
Language : Korean
Default : Yes
Forced : No

Audio #2
ID : 3
Format : AC-3
Format/Info : Audio Coding 3
Commercial name : Dolby Digital
Codec ID : A_AC3
Duration : 2 h 10 min
Bit rate mode : Constant
Bit rate : 640 kb/s
Channel(s) : 6 channels
Channel layout : L R C LFE Ls Rs
Sampling rate : 48.0 kHz
Frame rate : 31.250 FPS (1536 SPF)
Compression mode : Lossy
Stream size : 599 MiB (2%)
Language : Korean
Service kind : Complete Main
Default : Yes
Forced : No

Audio #3
ID : 4
Format : AC-3
Format/Info : Audio Coding 3
Commercial name : Dolby Digital
Codec ID : A_AC3
Duration : 2 h 10 min
Bit rate mode : Constant
Bit rate : 192 kb/s
Channel(s) : 2 channels
Channel layout : L R
Sampling rate : 48.0 kHz
Frame rate : 31.250 FPS (1536 SPF)
Compression mode : Lossy
Delay relative to video : 23 ms
Stream size : 180 MiB (1%)
Title : English Commentary by Tony Rayns
Language : English
Service kind : Complete Main
Default : No
Forced : No

Audio #4
ID : 5
Format : DTS
Format/Info : Digital Theater Systems
Codec ID : A_DTS
Duration : 2 h 10 min
Bit rate mode : Constant
Bit rate : 255 kb/s
Channel(s) : 2 channels
Channel layout : Lt Rt
Sampling rate : 48.0 kHz
Frame rate : 93.750 FPS (512 SPF)
Bit depth : 24 bits
Compression mode : Lossy
Delay relative to video : 1 ms
Stream size : 239 MiB (1%)
Title : Commentary by Director Bong Joon Ho and actors Song Kang Ho, Kim Sang Kyung and Park No Shik
Language : Korean
Default : No
Forced : No

Audio #5
ID : 6
Format : AC-3
Format/Info : Audio Coding 3
Commercial name : Dolby Digital
Codec ID : A_AC3
Duration : 2 h 10 min
Bit rate mode : Constant
Bit rate : 192 kb/s
Channel(s) : 2 channels
Channel layout : L R
Sampling rate : 48.0 kHz
Frame rate : 31.250 FPS (1536 SPF)
Compression mode : Lossy
Delay relative to video : 23 ms
Stream size : 180 MiB (1%)
Title : Commentary by Director Bong Jong Ho, Cinematographer Kim Hyung Ku and Production designer Ryu Sung Hee
Language : Korean
Service kind : Complete Main
Default : No
Forced : No

Text #1
ID : 7
Format : UTF-8
Codec ID : S_TEXT/UTF8
Codec ID/Info : UTF-8 Plain Text
Duration : 2 h 5 min
Bit rate : 43 b/s
Frame rate : 0.195 FPS
Count of elements : 1461
Stream size : 39.7 KiB (0%)
Language : English
Default : Yes
Forced : No

Text #2
ID : 8
Format : UTF-8
Codec ID : S_TEXT/UTF8
Codec ID/Info : UTF-8 Plain Text
Duration : 2 h 8 min
Bit rate : 46 b/s
Frame rate : 0.179 FPS
Count of elements : 1382
Stream size : 44.0 KiB (0%)
Language : French
Default : No
Forced : No

Text #3
ID : 9
Format : UTF-8
Codec ID : S_TEXT/UTF8
Codec ID/Info : UTF-8 Plain Text
Duration : 2 h 4 min
Bit rate : 69 b/s
Frame rate : 0.183 FPS
Count of elements : 1370
Stream size : 63.7 KiB (0%)
Language : German
Default : No
Forced : No

Text #4
ID : 10
Format : UTF-8
Codec ID : S_TEXT/UTF8
Codec ID/Info : UTF-8 Plain Text
Duration : 2 h 8 min
Bit rate : 42 b/s
Frame rate : 0.144 FPS
Count of elements : 1114
Stream size : 39.9 KiB (0%)
Language : Danish
Default : No
Forced : No

Text #5
ID : 11
Format : UTF-8
Codec ID : S_TEXT/UTF8
Codec ID/Info : UTF-8 Plain Text
Duration : 2 h 5 min
Bit rate : 41 b/s
Frame rate : 0.172 FPS
Count of elements : 1297
Stream size : 38.5 KiB (0%)
Language : Finnish
Default : No
Forced : No

Text #6
ID : 12
Format : UTF-8
Codec ID : S_TEXT/UTF8
Codec ID/Info : UTF-8 Plain Text
Duration : 2 h 6 min
Bit rate : 47 b/s
Frame rate : 0.191 FPS
Count of elements : 1454
Stream size : 44.0 KiB (0%)
Language : Norwegian
Default : No
Forced : No

Text #7
ID : 13
Format : UTF-8
Codec ID : S_TEXT/UTF8
Codec ID/Info : UTF-8 Plain Text
Duration : 2 h 8 min
Bit rate : 40 b/s
Frame rate : 0.134 FPS
Count of elements : 1033
Stream size : 37.7 KiB (0%)
Language : Swedish
Default : No
Forced : No

Menu
00:00:00.000 : en:Suspects
00:06:42.234 : en:Reading people
00:12:11.355 : en:Interrogation
00:14:23.653 : en:Evidence
00:19:54.275 : en:On Tape
00:23:52.472 : enoubts
00:29:45.950 : en:Rain and red
00:35:25.789 : enrofessional
00:36:13.921 : en:Folk wisdom
00:42:10.277 : en:Bait
00:48:25.360 : en:Same song
00:55:21.943 : enuarry
01:07:47.062 : en:One look
01:09:48.558 : en:Confession
01:14:29.589 : en:Soft hands
01:21:14.869 : en:Stage of emergency
01:24:22.223 : en:Nine pieces
01:26:33.020 : en:Adress
01:28:13.120 : en:Factory worker
01:33:40.364 : en:Witness
01:43:35.542 : en:Setbacks
01:53:21.085 : en:Tunnel vision
02:02:30.342 : en:Returning


资源速度为零或资源敏感被和谐时,推荐使用qBittorrent等下载软件,有条件的推荐115更好的下载软件!

下载地址:


游客,如果您要查看本帖隐藏内容请回复





上一篇:拯救圣诞记2[简繁中字]The Christmas Chronicles(2020)4K高清版本下载
下一篇:法兰西特派 [简繁粤中字] (2021) 4K高清版本下载
回复

使用道具 举报

195

主题

1641

帖子

4525

积分

4K家园VIP

Rank: 9Rank: 9Rank: 9

积分
4525
发表于 2022-8-12 10:12:47 来自手机 | 显示全部楼层
楼下的接上
回复 支持 反对

使用道具 举报

主题

帖子

0

积分

新手上路

Rank: 1

积分
0
发表于 2022-8-12 12:05:20 | 显示全部楼层
谢谢楼主分享
回复 支持 反对

使用道具 举报

主题

帖子

6

积分

新手上路

Rank: 1

积分
6
发表于 2022-8-12 15:59:09 | 显示全部楼层
感谢分享!
回复

使用道具 举报

0

主题

1412

帖子

4250

积分

4K家园VIP

Rank: 9Rank: 9Rank: 9

积分
4250
发表于 2022-8-13 04:29:03 | 显示全部楼层
看起来不错
回复 支持 反对

使用道具 举报

3

主题

1524

帖子

4426

积分

4K家园VIP

Rank: 9Rank: 9Rank: 9

积分
4426
发表于 2022-8-13 04:54:40 来自手机 | 显示全部楼层
垃圾
回复 支持 反对

使用道具 举报

37

主题

1564

帖子

4496

积分

4K家园VIP

Rank: 9Rank: 9Rank: 9

积分
4496
发表于 2022-8-13 15:47:55 | 显示全部楼层
4K家园资源不错,前排支持
回复 支持 反对

使用道具 举报

主题

帖子

48

积分

新手上路

Rank: 1

积分
48
发表于 2022-8-14 04:15:35 | 显示全部楼层
还是很值得收藏的
回复 支持 反对

使用道具 举报

主题

帖子

21

积分

新手上路

Rank: 1

积分
21
发表于 2022-8-14 10:07:51 来自手机 | 显示全部楼层
感谢
回复 支持 反对

使用道具 举报

44

主题

1575

帖子

4543

积分

4K家园VIP

Rank: 9Rank: 9Rank: 9

积分
4543
发表于 2022-8-14 18:49:37 | 显示全部楼层
看起来不错
回复 支持 反对

使用道具 举报

您需要登录后才可以回帖 登录 | 立即注册

本版积分规则

精彩图文
Archiver|手机版|TAG|Sitemap|新帖|专题|联系我们:邮箱: 4kjia.com@gmail.com   

4k家园   ©2019