[4K电影] 法兰西特派 [简繁粤中字] (2021) 4K高清版本下载

[复制链接]

2327

主题

2476

帖子

1万

积分

超级版主

Rank: 8Rank: 8

积分
17940
 楼主| 发表于 2022-8-12 10:15:21 | 显示全部楼层 |阅读模式

QQ图片20220812101103_副本.png

◎译  名 法兰西特派/法兰西诸事周报(港)/法兰西特派周报(台)/法式派遣/法国派遣/法兰西派遣/The French Dispatch of the Liberty, Kansas Evening Sun
◎片  名 The French Dispatch
◎年  代 2021
◎产  地 美国/德国
◎类  别 剧情/喜剧
◎语  言 英语/法语
◎上映日期 2021-07-12(戛纳电影节)/2021-10-22(美国)/2021-12-14(美国网络)
◎IMDb评分 7.2/10 from 113479 users
◎IMDb链接 https://www.imdb.com/title/tt8847712/
◎豆瓣评分 7.7/10 from 77025 users
◎豆瓣链接 https://movie.douban.com/subject/30300279/
◎片  长 108分钟
◎导  演 韦斯·安德森 Wes Anderson
◎编  剧 韦斯·安德森 Wes Anderson / 罗曼·科波拉 Roman Coppola / 雨果·吉尼斯 Hugo Guinness / 詹森·舒瓦兹曼 Jason Schwartzman
◎主  演 本尼西奥·德尔·托罗 Benicio del Toro
       艾德里安·布洛迪 Adrien Brody
       蒂尔达·斯文顿 Tilda Swinton
       蕾雅·赛杜 Léa Seydoux
       弗兰西斯·麦克多蒙德 Frances McDormand
       蒂莫西·柴勒梅德 Timothée Chalamet
       琳娜·库德里 Lyna Khoudri
       杰弗里·怀特 Jeffrey Wright
       马修·阿马立克 Mathieu Amalric
       斯蒂夫·朴 Steve Park
       比尔·默瑞 Bill Murray
       欧文·威尔逊 Owen Wilson
       鲍勃·巴拉班 Bob Balaban
       亨利·温克勒 Henry Winkler
       罗伊丝·史密斯 Lois Smith
       托尼·雷沃罗利 Tony Revolori
       德尼·梅诺谢 Denis Ménochet
       拉里·派恩 Larry Pine
       莫嘉娜·波兰斯基 Morgane Polanski
       费利克斯·莫阿蒂 Félix Moati
       克里斯托弗·瓦尔兹 Christoph Waltz
       塞西尔·德·弗朗斯 Cécile De France
       圭洛姆·加里尼 Guillaume Gallienne
       鲁伯特·弗兰德 Rupert Friend
       埃里克斯·劳瑟 Alex Lawther
       莉莉·塔耶布 Lily Taieb
       斯特凡·巴克 Stéphane Bak
       伊波利特·吉拉尔多 Hippolyte Girardot
       列维·施瑞博尔 Liev Schreiber
       威廉·达福 Willem Dafoe
       爱德华·诺顿 Edward Norton
       西尔莎·罗南 Saoirse Ronan
       达米安·勃纳尔 Damien Bonnard
       罗多尔·保利 Rodolphe Pauly
       安东尼娅·德斯普拉特 Antonia Desplat
       伊丽莎白·莫斯 Elisabeth Moss
       詹森·舒瓦兹曼 Jason Schwartzman
       费舍·史蒂芬斯 Fisher Stevens
       格里芬·邓恩 Griffin Dunne
       巴勃罗·保利 Pablo Pauly
       华莱士·沃洛达斯基 Wallace Wolodarsky
       安杰丽卡·贝蒂·费利尼 Anjelica Bette Fellini
       安杰丽卡·休斯顿 Anjelica Huston
       尼古拉·萨阿达 Nicolas Saada
       托希布·吉莫 Toheeb Jimoh
       樊尚·马凯涅 Vincent Macaigne
       本杰明·拉维赫尼 Benjamin Lavernhe
       山姆·海加斯 Sam Haygarth
       塞缪尔·布伦金 Samuel Blenkin
       尼古拉斯·克劳彻 Nicholas Croucher
       格雷戈瓦·勒普兰斯-林盖 Grégoire Leprince-Ringuet


◎简  介

  一封写给记者的情书,发生在一家美国报纸的前哨,位于一座虚构的20世纪法国城市,使“法国快讯杂志”上发表的一系列故事栩栩如生。

◎获奖情况

  第74届戛纳电影节(2021)
  主竞赛单元 金棕榈奖(提名)

  第73届戛纳电影节(2020)
  入选过戛纳导演作品(提名)

  第79届金球奖(2022)
  电影类 最佳原创配乐(提名)

  第7届豆瓣电影年度榜单(2020)
  最值得期待的外语电影(提名)

Video
ID : 1
Format : HEVC
Format/Info : High Efficiency Video Coding
Format profile : Main 10@L5@High
Codec ID : V_MPEGH/ISO/HEVC
Duration : 1 h 47 min
Bit rate : 23.8 Mb/s
Width : 3 840 pixels
Height : 2 160 pixels
Display aspect ratio : 16:9
Frame rate mode : Constant
Frame rate : 23.976 (24000/1001) FPS
Color space : YUV
Chroma subsampling : 4:2:0 (Type 2)
Bit depth : 10 bits
Bits/(Pixel*Frame) : 0.120
Stream size : 17.9 GiB (86%)
Language : English
Default : Yes
Forced : No
Color range : Limited
Color primaries : BT.709
Transfer characteristics : BT.709
Matrix coefficients : BT.709

Audio #1
ID : 2
Format : DTS XLL
Format/Info : Digital Theater Systems
Commercial name : DTS-HD Master Audio
Codec ID : A_DTS
Duration : 1 h 47 min
Bit rate mode : Variable
Bit rate : 3 183 kb/s
Channel(s) : 6 channels
Channel layout : C L R Ls Rs LFE
Sampling rate : 48.0 kHz
Frame rate : 93.750 FPS (512 SPF)
Bit depth : 24 bits
Compression mode : Lossless
Delay relative to video : 83 ms
Stream size : 2.39 GiB (12%)
Language : English
Default : Yes
Forced : No

Audio #2
ID : 3
Format : AC-3
Format/Info : Audio Coding 3
Commercial name : Dolby Digital
Codec ID : A_AC3
Duration : 1 h 47 min
Bit rate mode : Constant
Bit rate : 640 kb/s
Channel(s) : 6 channels
Channel layout : L R C LFE Ls Rs
Sampling rate : 48.0 kHz
Frame rate : 31.250 FPS (1536 SPF)
Compression mode : Lossy
Stream size : 493 MiB (2%)
Language : English
Service kind : Complete Main
Default : No
Forced : No

Text #1
ID : 4
Format : UTF-8
Codec ID : S_TEXT/UTF8
Codec ID/Info : UTF-8 Plain Text
Duration : 1 h 41 min
Bit rate : 74 b/s
Frame rate : 0.232 FPS
Count of elements : 1418
Stream size : 55.8 KiB (0%)
Language : English
Default : No
Forced : No

Text #2
ID : 5
Format : UTF-8
Codec ID : S_TEXT/UTF8
Codec ID/Info : UTF-8 Plain Text
Duration : 1 h 42 min
Bit rate : 84 b/s
Frame rate : 0.274 FPS
Count of elements : 1684
Stream size : 63.1 KiB (0%)
Title : SDH
Language : English
Default : No
Forced : No

Text #3
ID : 6
Format : UTF-8
Codec ID : S_TEXT/UTF8
Codec ID/Info : UTF-8 Plain Text
Duration : 1 h 47 min
Bit rate : 77 b/s
Frame rate : 0.239 FPS
Count of elements : 1535
Stream size : 60.7 KiB (0%)
Language : Czech
Default : No
Forced : No

Text #4
ID : 7
Format : UTF-8
Codec ID : S_TEXT/UTF8
Codec ID/Info : UTF-8 Plain Text
Duration : 1 h 47 min
Bit rate : 71 b/s
Frame rate : 0.177 FPS
Count of elements : 1138
Stream size : 55.9 KiB (0%)
Language : Danish
Default : No
Forced : No

Text #5
ID : 8
Format : UTF-8
Codec ID : S_TEXT/UTF8
Codec ID/Info : UTF-8 Plain Text
Duration : 1 h 47 min
Bit rate : 76 b/s
Frame rate : 0.250 FPS
Count of elements : 1605
Stream size : 59.9 KiB (0%)
Language : German
Default : No
Forced : No

Text #6
ID : 9
Format : UTF-8
Codec ID : S_TEXT/UTF8
Codec ID/Info : UTF-8 Plain Text
Duration : 1 h 47 min
Bit rate : 131 b/s
Frame rate : 0.240 FPS
Count of elements : 1542
Stream size : 103 KiB (0%)
Language : Greek
Default : No
Forced : No

Text #7
ID : 10
Format : UTF-8
Codec ID : S_TEXT/UTF8
Codec ID/Info : UTF-8 Plain Text
Duration : 1 h 44 min
Bit rate : 83 b/s
Frame rate : 0.244 FPS
Count of elements : 1533
Stream size : 64.1 KiB (0%)
Title : Latin American
Language : Spanish
Default : No
Forced : No

Text #8
ID : 11
Format : UTF-8
Codec ID : S_TEXT/UTF8
Codec ID/Info : UTF-8 Plain Text
Duration : 1 h 44 min
Bit rate : 83 b/s
Frame rate : 0.244 FPS
Count of elements : 1533
Stream size : 64.1 KiB (0%)
Title : Latin American (SDH)
Language : Spanish
Default : No
Forced : No

Text #9
ID : 12
Format : UTF-8
Codec ID : S_TEXT/UTF8
Codec ID/Info : UTF-8 Plain Text
Duration : 1 h 47 min
Bit rate : 77 b/s
Frame rate : 0.239 FPS
Count of elements : 1533
Stream size : 60.5 KiB (0%)
Language : Spanish
Default : No
Forced : No

Text #10
ID : 13
Format : UTF-8
Codec ID : S_TEXT/UTF8
Codec ID/Info : UTF-8 Plain Text
Duration : 1 h 47 min
Bit rate : 75 b/s
Frame rate : 0.239 FPS
Count of elements : 1538
Stream size : 59.3 KiB (0%)
Language : Finnish
Default : No
Forced : No

Text #11
ID : 14
Format : UTF-8
Codec ID : S_TEXT/UTF8
Codec ID/Info : UTF-8 Plain Text
Duration : 1 h 45 min
Bit rate : 78 b/s
Frame rate : 0.223 FPS
Count of elements : 1414
Stream size : 60.9 KiB (0%)
Title : Canadian
Language : French
Default : No
Forced : No

Text #12
ID : 15
Format : UTF-8
Codec ID : S_TEXT/UTF8
Codec ID/Info : UTF-8 Plain Text
Duration : 1 h 47 min
Bit rate : 68 b/s
Frame rate : 0.210 FPS
Count of elements : 1352
Stream size : 53.6 KiB (0%)
Language : French
Default : No
Forced : No

Text #13
ID : 16
Format : UTF-8
Codec ID : S_TEXT/UTF8
Codec ID/Info : UTF-8 Plain Text
Duration : 1 h 47 min
Bit rate : 72 b/s
Frame rate : 0.215 FPS
Count of elements : 1378
Stream size : 56.7 KiB (0%)
Language : Hungarian
Default : No
Forced : No

Text #14
ID : 17
Format : UTF-8
Codec ID : S_TEXT/UTF8
Codec ID/Info : UTF-8 Plain Text
Duration : 1 h 47 min
Bit rate : 75 b/s
Frame rate : 0.219 FPS
Count of elements : 1408
Stream size : 58.9 KiB (0%)
Language : Icelandic
Default : No
Forced : No

Text #15
ID : 18
Format : UTF-8
Codec ID : S_TEXT/UTF8
Codec ID/Info : UTF-8 Plain Text
Duration : 1 h 47 min
Bit rate : 78 b/s
Frame rate : 0.238 FPS
Count of elements : 1532
Stream size : 61.7 KiB (0%)
Language : Italian
Default : No
Forced : No

Text #16
ID : 19
Format : UTF-8
Codec ID : S_TEXT/UTF8
Codec ID/Info : UTF-8 Plain Text
Duration : 1 h 47 min
Bit rate : 59 b/s
Frame rate : 0.209 FPS
Count of elements : 1345
Stream size : 46.9 KiB (0%)
Language : Japanese
Default : No
Forced : No

Text #17
ID : 20
Format : UTF-8
Codec ID : S_TEXT/UTF8
Codec ID/Info : UTF-8 Plain Text
Duration : 1 h 44 min
Bit rate : 69 b/s
Frame rate : 0.245 FPS
Count of elements : 1537
Stream size : 53.4 KiB (0%)
Language : Korean
Default : No
Forced : No

Text #18
ID : 21
Format : UTF-8
Codec ID : S_TEXT/UTF8
Codec ID/Info : UTF-8 Plain Text
Duration : 1 h 47 min
Bit rate : 58 b/s
Frame rate : 0.195 FPS
Count of elements : 1255
Stream size : 46.1 KiB (0%)
Language : Dutch
Default : No
Forced : No

Text #19
ID : 22
Format : UTF-8
Codec ID : S_TEXT/UTF8
Codec ID/Info : UTF-8 Plain Text
Duration : 1 h 47 min
Bit rate : 72 b/s
Frame rate : 0.239 FPS
Count of elements : 1533
Stream size : 56.5 KiB (0%)
Language : Norwegian
Default : No
Forced : No

Text #20
ID : 23
Format : UTF-8
Codec ID : S_TEXT/UTF8
Codec ID/Info : UTF-8 Plain Text
Duration : 1 h 47 min
Bit rate : 68 b/s
Frame rate : 0.213 FPS
Count of elements : 1370
Stream size : 53.7 KiB (0%)
Language : Polish
Default : No
Forced : No

Text #21
ID : 24
Format : UTF-8
Codec ID : S_TEXT/UTF8
Codec ID/Info : UTF-8 Plain Text
Duration : 1 h 47 min
Bit rate : 74 b/s
Frame rate : 0.239 FPS
Count of elements : 1534
Stream size : 58.1 KiB (0%)
Title : Brazilian
Language : Portuguese
Default : No
Forced : No

Text #22
ID : 25
Format : UTF-8
Codec ID : S_TEXT/UTF8
Codec ID/Info : UTF-8 Plain Text
Duration : 1 h 47 min
Bit rate : 88 b/s
Frame rate : 0.386 FPS
Count of elements : 2481
Stream size : 69.7 KiB (0%)
Title : Brazilian (SDH)
Language : Portuguese
Default : No
Forced : No

Text #23
ID : 26
Format : UTF-8
Codec ID : S_TEXT/UTF8
Codec ID/Info : UTF-8 Plain Text
Duration : 1 h 47 min
Bit rate : 78 b/s
Frame rate : 0.232 FPS
Count of elements : 1494
Stream size : 61.7 KiB (0%)
Language : Portuguese
Default : No
Forced : No

Text #24
ID : 27
Format : UTF-8
Codec ID : S_TEXT/UTF8
Codec ID/Info : UTF-8 Plain Text
Duration : 1 h 47 min
Bit rate : 73 b/s
Frame rate : 0.239 FPS
Count of elements : 1534
Stream size : 57.5 KiB (0%)
Language : Romanian
Default : No
Forced : No

Text #25
ID : 28
Format : UTF-8
Codec ID : S_TEXT/UTF8
Codec ID/Info : UTF-8 Plain Text
Duration : 1 h 47 min
Bit rate : 66 b/s
Frame rate : 0.239 FPS
Count of elements : 1535
Stream size : 51.9 KiB (0%)
Language : Slovak
Default : No
Forced : No

Text #26
ID : 29
Format : UTF-8
Codec ID : S_TEXT/UTF8
Codec ID/Info : UTF-8 Plain Text
Duration : 1 h 47 min
Bit rate : 72 b/s
Frame rate : 0.185 FPS
Count of elements : 1186
Stream size : 56.6 KiB (0%)
Language : Swedish
Default : No
Forced : No

Text #27
ID : 30
Format : UTF-8
Codec ID : S_TEXT/UTF8
Codec ID/Info : UTF-8 Plain Text
Duration : 1 h 47 min
Bit rate : 71 b/s
Frame rate : 0.235 FPS
Count of elements : 1508
Stream size : 55.7 KiB (0%)
Language : Turkish
Default : No
Forced : No

Text #28
ID : 31
Format : UTF-8
Codec ID : S_TEXT/UTF8
Codec ID/Info : UTF-8 Plain Text
Duration : 1 h 47 min
Bit rate : 46 b/s
Frame rate : 0.239 FPS
Count of elements : 1538
Stream size : 36.4 KiB (0%)
Title : 粤语
Language : 中文
Default : No
Forced : No

Text #29
ID : 32
Format : UTF-8
Codec ID : S_TEXT/UTF8
Codec ID/Info : UTF-8 Plain Text
Duration : 1 h 47 min
Bit rate : 61 b/s
Frame rate : 0.241 FPS
Count of elements : 1550
Stream size : 48.6 KiB (0%)
Title : 简体
Language : 中文
Default : No
Forced : No

Text #30
ID : 33
Format : UTF-8
Codec ID : S_TEXT/UTF8
Codec ID/Info : UTF-8 Plain Text
Duration : 1 h 47 min
Bit rate : 50 b/s
Frame rate : 0.240 FPS
Count of elements : 1544
Stream size : 40.0 KiB (0%)
Title : 繁体
Language : 中文
Default : No
Forced : No


Menu
00:00:00.000 : en:Chapter 01
00:06:07.000 : en:Chapter 02
00:10:20.000 : en:Chapter 03
00:17:01.000 : en:Chapter 04
00:21:16.000 : en:Chapter 05
00:26:47.000 : en:Chapter 06
00:30:52.000 : en:Chapter 07
00:37:44.000 : en:Chapter 08
00:43:49.000 : en:Chapter 09
00:48:59.000 : en:Chapter 10
00:58:10.000 : en:Chapter 11
01:04:43.000 : en:Chapter 12
01:09:49.000 : en:Chapter 13
01:20:20.000 : en:Chapter 14
01:28:24.000 : en:Chapter 15
01:34:19.000 : en:Chapter 16
01:40:51.000 : en:Chapter 17
01:43:09.000 : en:Chapter 18


资源速度为零或资源敏感被和谐时,推荐使用qBittorrent等下载软件,有条件的推荐115更好的下载软件!

下载地址:


游客,如果您要查看本帖隐藏内容请回复


相关其他4K高清版本链接:法兰西特派 / The French Dispatch (2021) 4K高清版下载




上一篇:杀人回忆 / 살인의 추억 (2003) 4K高清版本下载
下一篇:沙丘 / The Dunes (2022) 4K高清版本下载
回复

使用道具 举报

4

主题

1245

帖子

3767

积分

4K家园VIP

Rank: 9Rank: 9Rank: 9

积分
3767
发表于 2022-8-12 10:15:25 | 显示全部楼层
试试先,好用再说
回复 支持 反对

使用道具 举报

0

主题

138

帖子

773

积分

4K家园VIP

Rank: 9Rank: 9Rank: 9

积分
773
发表于 2022-8-12 21:20:13 | 显示全部楼层
让 江小白 来看看帖子里藏了啥好东西~~~
回复 支持 反对

使用道具 举报

2

主题

1592

帖子

4622

积分

4K家园VIP

Rank: 9Rank: 9Rank: 9

积分
4622
发表于 2022-8-15 10:57:11 来自手机 | 显示全部楼层
我了个去,顶了
回复 支持 反对

使用道具 举报

0

主题

1470

帖子

4224

积分

4K家园VIP

Rank: 9Rank: 9Rank: 9

积分
4224
发表于 2022-8-19 20:12:12 | 显示全部楼层
你们要是有4K资源记得分享,别小气
回复 支持 反对

使用道具 举报

2

主题

1359

帖子

4097

积分

4K家园VIP

Rank: 9Rank: 9Rank: 9

积分
4097
发表于 2022-8-22 04:32:43 | 显示全部楼层
感谢分享
回复 支持 反对

使用道具 举报

0

主题

1

帖子

6

积分

新手上路

Rank: 1

积分
6
发表于 2022-8-27 14:18:59 | 显示全部楼层
好人一生平安
回复 支持 反对

使用道具 举报

0

主题

1

帖子

6

积分

新手上路

Rank: 1

积分
6
发表于 2022-9-20 19:58:10 | 显示全部楼层
xxzyhhhhhhh
回复 支持 反对

使用道具 举报

5

主题

1706

帖子

4724

积分

4K家园VIP

Rank: 9Rank: 9Rank: 9

积分
4724
发表于 2022-9-23 01:26:22 | 显示全部楼层
无论是不是沙发都得回复下
回复 支持 反对

使用道具 举报

您需要登录后才可以回帖 登录 | 立即注册

本版积分规则

精彩图文
Archiver|手机版|TAG|Sitemap|新帖|专题|联系我们:邮箱: 4kjia.com@gmail.com   

4k家园   ©2019