[4K电影] 仿生人妻子 / WifeLike (2022) 4K高清版本下载

  [复制链接]

2327

主题

2476

帖子

1万

积分

超级版主

Rank: 8Rank: 8

积分
17940
 楼主| 发表于 2022-8-12 13:17:47 | 显示全部楼层 |阅读模式
QQ图片20220812130257_副本.png

◎译  名 仿生人妻子 / 智能贤妻 / 人工智能妻
◎片  名 WifeLike
◎年  代 2022
◎产  地 美国
◎类  别 科幻
◎语  言 英语
◎上映日期 2022(美国)
◎IMDb评分 0/10 from 0 users
◎IMDb链接 https://www.imdb.com/title/tt15978956/
◎豆瓣评分 0/10 from 0 users
◎豆瓣链接 https://movie.douban.com/subject/36006676/
◎导  演 詹姆斯·伯德 James Bird
◎编  剧 詹姆斯·伯德 James Bird
◎演  员 乔纳森·里斯·迈尔斯 Jonathan Rhys Meyers
                   埃莱娜·康博里斯 Elena Kampouris
                   多隆·贝尔 Doron Bell
                   阿加·达什 Agam Darshi
                   阿利克斯·维拉雷特 Alix Villaret
                   弗莱彻·多诺万 Fletcher Donovan
                   莎拉·桑帕约 Sara Sampaio
                   雷切尔·古尔丁  Rachelle Goulding
                   凯特琳·史崔克 Caitlin Stryker
                   C、佩里·巴尼亚舍夫 C.J. Perry Barnyashev
                   克莱尔·弗里森 Claire Friesen
                   肖恩·伊夫·莱斯萨尔 Sean Yves Lessard
                   纱丽·美世 Sari Mercer
                   Chezca Vega  Chezca Vega
                   布拉德利·史崔克 Bradley Stryker
                   肖恩·伊夫·莱斯萨尔 Stuart James
                   斯蒂芬·洛博 Stephen Lobo
                   阿尔伯特·尼古拉斯Albert Nicholas



◎简  介

  当人造人梅雷迪斯被指定为悲伤的鳏夫威廉的伴侣时,她被设计成表现得像他已故的妻子。但在结束人工智能开发的斗争中,一个组织试图破坏她的编程。

Video
ID : 1
Format : HEVC
Format/Info : High Efficiency Video Coding
Format profile : Main 10@L5@High
Codec ID : V_MPEGH/ISO/HEVC
Duration : 1 h 45 min
Bit rate : 11.4 Mb/s
Width : 3 838 pixels
Height : 1 606 pixels
Display aspect ratio : 2.40:1
Frame rate mode : Constant
Frame rate : 23.976 FPS
Color space : YUV
Chroma subsampling : 4:2:0
Bit depth : 10 bits
Bits/(Pixel*Frame) : 0.077
Stream size : 8.37 GiB (97%)
Default : Yes
Forced : No
Color range : Limited
Color primaries : BT.709
Transfer characteristics : BT.709
Matrix coefficients : BT.709

Audio
ID : 2
Format : AC-3
Format/Info : Audio Coding 3
Commercial name : Dolby Digital
Codec ID : A_AC3
Duration : 1 h 45 min
Bit rate mode : Constant
Bit rate : 384 kb/s
Channel(s) : 6 channels
Channel layout : L R C LFE Ls Rs
Sampling rate : 48.0 kHz
Frame rate : 31.250 FPS (1536 SPF)
Compression mode : Lossy
Stream size : 289 MiB (3%)
Language : English
Service kind : Complete Main
Default : Yes
Forced : No

Text
ID : 3
Format : UTF-8
Codec ID : S_TEXT/UTF8
Codec ID/Info : UTF-8 Plain Text
Duration : 1 h 41 min
Bit rate : 55 b/s
Frame rate : 0.248 FPS
Count of elements : 1508
Stream size : 41.0 KiB (0%)
Language : English
Default : Yes
Forced : No

资源速度为零或资源敏感被和谐时,推荐使用qBittorrent等下载软件,有条件的推荐115更好的下载软件!

下载地址:


游客,如果您要查看本帖隐藏内容请回复





上一篇:沙丘 / The Dunes (2022) 4K高清版本下载
下一篇:弗雷加德 / Rogue Agent (2022) 4K高清版本下载
回复

使用道具 举报

3

主题

1400

帖子

4224

积分

4K家园VIP

Rank: 9Rank: 9Rank: 9

积分
4224
发表于 2022-8-12 13:17:55 来自手机 | 显示全部楼层
4K家园资源最近貌似越来越多了
回复 支持 反对

使用道具 举报

0

主题

1

帖子

10

积分

新手上路

Rank: 1

积分
10
发表于 2022-8-12 15:45:47 | 显示全部楼层
4K家园资源最近貌似越来越多了
回复 支持 反对

使用道具 举报

0

主题

2

帖子

9

积分

新手上路

Rank: 1

积分
9
发表于 2022-8-12 16:34:14 | 显示全部楼层
支持
回复

使用道具 举报

2

主题

1348

帖子

3858

积分

4K家园VIP

Rank: 9Rank: 9Rank: 9

积分
3858
发表于 2022-8-12 17:07:07 | 显示全部楼层
差评
回复 支持 反对

使用道具 举报

1

主题

1327

帖子

3799

积分

4K家园VIP

Rank: 9Rank: 9Rank: 9

积分
3799
发表于 2022-8-12 17:11:02 | 显示全部楼层
这个资源我记得是一套的,楼主还有没有
回复 支持 反对

使用道具 举报

0

主题

1

帖子

6

积分

新手上路

Rank: 1

积分
6
发表于 2022-8-12 17:45:32 来自手机 | 显示全部楼层
xxfgnvhknn
回复 支持 反对

使用道具 举报

0

主题

1409

帖子

4073

积分

4K家园VIP

Rank: 9Rank: 9Rank: 9

积分
4073
发表于 2022-8-12 20:55:34 | 显示全部楼层
纯粹路过,没任何兴趣,仅仅是看在老用户份上回复一下
回复 支持 反对

使用道具 举报

0

主题

138

帖子

773

积分

4K家园VIP

Rank: 9Rank: 9Rank: 9

积分
773
发表于 2022-8-12 21:17:34 | 显示全部楼层
让 江小白 来看看帖子里藏了啥好东西~~~
回复 支持 反对

使用道具 举报

2

主题

1592

帖子

4622

积分

4K家园VIP

Rank: 9Rank: 9Rank: 9

积分
4622
发表于 2022-8-13 02:15:29 | 显示全部楼层
看起来不错
回复 支持 反对

使用道具 举报

您需要登录后才可以回帖 登录 | 立即注册

本版积分规则

精彩图文
Archiver|手机版|TAG|Sitemap|新帖|专题|联系我们:邮箱: 4kjia.com@gmail.com   

4k家园   ©2019