[4K美女视频] 韩国比基尼健美比赛现场实拍105[2160P/MP4/381MB]

[复制链接]

1068

主题

1207

帖子

7551

积分

超级版主

Rank: 8Rank: 8

积分
7551
 楼主| 发表于 2019-6-8 20:58:33 | 显示全部楼层 |阅读模式

韩国比基尼健美比赛现场实拍105.mp4_20190608_204951.004.jpg 韩国比基尼健美比赛现场实拍105.mp4_20190608_204959.869.jpg 韩国比基尼健美比赛现场实拍105.mp4_20190608_205015.709.jpg 韩国比基尼健美比赛现场实拍105.mp4_20190608_205035.061.jpg

General
Complete name                  : 韩国比基尼健美比赛现场实拍105.mp4
Format                         : MPEG-4
Format profile                 : Base Media
Codec ID                       : isom (isom/iso2/avc1/mp41)
File size                      : 382 MiB
Duration                       : 4 min 5 s
Overall bit rate               : 13.0 Mb/s
Writing application            : Lavf58.12.100

Video
ID                             : 1
Format                         : AVC
Format/Info                    : Advanced Video Codec
Format profile                 : [email protected]
Format settings                : CABAC / 4 Ref Frames
Format settings, CABAC         : Yes
Format settings, ReFrames      : 4 frames
Codec ID                       : avc1
Codec ID/Info                  : Advanced Video Coding
Duration                       : 4 min 5 s
Bit rate                       : 13.0 Mb/s
Width                          : 3 840 pixels
Height                         : 2 160 pixels
Display aspect ratio           : 16:9
Frame rate mode                : Constant
Frame rate                     : 29.000 FPS
Color space                    : YUV
Chroma subsampling             : 4:2:0
Bit depth                      : 8 bits
Scan type                      : Progressive
Bits/(Pixel*Frame)             : 0.054
Stream size                    : 378 MiB (99%)
Writing library                : x264 core 148
Encoding settings              : cabac=1 / ref=3 / deblock=1:0:0 / analyse=0x3:0x113 / me=hex / subme=7 / psy=1 / psy_rd=1.00:0.00 / mixed_ref=1 / me_range=16 / chroma_me=1 / trellis=1 / 8x8dct=1 / cqm=0 / deadzone=21,11 / fast_pskip=1 / chroma_qp_offset=-2 / threads=6 / lookahead_threads=1 / sliced_threads=0 / nr=0 / decimate=1 / interlaced=0 / bluray_compat=0 / constrained_intra=0 / bframes=3 / b_pyramid=2 / b_adapt=1 / b_bias=0 / direct=1 / weightb=1 / open_gop=0 / weightp=2 / keyint=250 / keyint_min=25 / scenecut=40 / intra_refresh=0 / rc_lookahead=40 / rc=abr / mbtree=1 / bitrate=13000 / ratetol=1.0 / qcomp=0.60 / qpmin=0 / qpmax=69 / qpstep=4 / ip_ratio=1.40 / aq=1:1.00
Language                       : English
Codec configuration box        : avcC

Audio
ID                             : 2
Format                         : AAC LC
Format/Info                    : Advanced Audio Codec Low Complexity
Codec ID                       : mp4a-40-2
Duration                       : 4 min 5 s
Bit rate mode                  : Constant
Bit rate                       : 129 kb/s
Channel(s)                     : 2 channels
Channel layout                 : L R
Sampling rate                  : 44.1 kHz
Frame rate                     : 43.066 FPS (1024 SPF)
Compression mode               : Lossy
Stream size                    : 3.76 MiB (1%)
Language                       : English
Default                        : Yes
Alternate group                : 1




网盘下载失效不补:链接: https://pan.baidu.com/s/1e12mn3eRcw_0GdZUCkm68Q
****此区域为收费内容****    需支付 15 金币后可查看立即购买





.

上一篇:2019花博亚洲动漫创作展狐狸泳装美女 [2160P/MP4/163MB]
下一篇:台湾同人志贩售会爱心泳圈白色泳装妹子[2160P/MP4/159MB]
回复

使用道具 举报

39

主题

1081

帖子

3055

积分

4K家园VIP

Rank: 9Rank: 9Rank: 9

积分
3055
发表于 2019-6-8 20:58:38 | 显示全部楼层
LZ帖子不给力,勉强给回复下吧
回复 支持 反对

使用道具 举报

0

主题

5

帖子

43

积分

新手上路

Rank: 1

积分
43
发表于 2019-6-8 23:20:36 | 显示全部楼层

既然你诚信诚意的推荐了,那我就勉为其难的看看吧!4K家园不走平凡路。
回复 支持 反对

使用道具 举报

0

主题

10

帖子

44

积分

新手上路

Rank: 1

积分
44
发表于 2019-6-8 23:34:51 | 显示全部楼层
没金币下不了
回复 支持 反对

使用道具 举报

0

主题

10

帖子

44

积分

新手上路

Rank: 1

积分
44
发表于 2019-6-8 23:35:07 | 显示全部楼层
楼主发贴辛苦了,谢谢楼主分享!我觉得来4K家园是注册对了!
回复 支持 反对

使用道具 举报

0

主题

1251

帖子

3345

积分

4K家园VIP

Rank: 9Rank: 9Rank: 9

积分
3345
发表于 2019-6-9 00:53:06 | 显示全部楼层
我只是看看啊,不说话
回复 支持 反对

使用道具 举报

40

主题

1107

帖子

3117

积分

4K家园VIP

Rank: 9Rank: 9Rank: 9

积分
3117
发表于 2019-6-10 05:36:15 | 显示全部楼层
在撸一遍。。。
回复 支持 反对

使用道具 举报

0

主题

912

帖子

2756

积分

4K家园VIP

Rank: 9Rank: 9Rank: 9

积分
2756
发表于 2019-6-11 12:55:05 | 显示全部楼层
我也是坐沙发的
回复 支持 反对

使用道具 举报

48

主题

1147

帖子

3229

积分

4K家园VIP

Rank: 9Rank: 9Rank: 9

积分
3229
发表于 2019-6-13 19:46:23 | 显示全部楼层
试试看吧
回复 支持 反对

使用道具 举报

您需要登录后才可以回帖 登录 | 立即注册

本版积分规则

精彩图文
关闭

站长推荐上一条 /1 下一条

4k家园   ©2019