[4K美女视频] 台湾同人志贩售会爱心泳圈白色泳装妹子[2160P/MP4/159MB]

[复制链接]

1068

主题

1207

帖子

7551

积分

超级版主

Rank: 8Rank: 8

积分
7551
 楼主| 发表于 2019-6-10 22:53:15 | 显示全部楼层 |阅读模式
台湾同人志贩售会爱心泳圈白色泳装妹子.mp4_20190608_204252.965_meitu_1.jpg 台湾同人志贩售会爱心泳圈白色泳装妹子.mp4_20190608_204303.554.jpg 台湾同人志贩售会爱心泳圈白色泳装妹子.mp4_20190608_204318.767.jpg 台湾同人志贩售会爱心泳圈白色泳装妹子.mp4_20190608_204324.478.jpg

General
Complete name                  : 4K视频\台湾同人志贩售会爱心泳圈白色泳装妹子.mp4
Format                         : MPEG-4
Format profile                 : Base Media
Codec ID                       : isom (isom/iso2/avc1/mp41)
File size                      : 159 MiB
Duration                       : 1 min 24 s
Overall bit rate               : 15.8 Mb/s
Writing application            : Lavf58.12.100

Video
ID                             : 1
Format                         : AVC
Format/Info                    : Advanced Video Codec
Format profile                 : [email protected]
Format settings                : CABAC / 4 Ref Frames
Format settings, CABAC         : Yes
Format settings, ReFrames      : 4 frames
Codec ID                       : avc1
Codec ID/Info                  : Advanced Video Coding
Duration                       : 1 min 24 s
Bit rate                       : 16.0 Mb/s
Width                          : 3 836 pixels
Height                         : 2 032 pixels
Display aspect ratio           : 1.888
Frame rate mode                : Constant
Frame rate                     : 29.000 FPS
Color space                    : YUV
Chroma subsampling             : 4:2:0
Bit depth                      : 8 bits
Scan type                      : Progressive
Bits/(Pixel*Frame)             : 0.071
Stream size                    : 158 MiB (99%)
Writing library                : x264 core 148
Encoding settings              : cabac=1 / ref=3 / deblock=1:0:0 / analyse=0x3:0x113 / me=hex / subme=7 / psy=1 / psy_rd=1.00:0.00 / mixed_ref=1 / me_range=16 / chroma_me=1 / trellis=1 / 8x8dct=1 / cqm=0 / deadzone=21,11 / fast_pskip=1 / chroma_qp_offset=-2 / threads=6 / lookahead_threads=1 / sliced_threads=0 / nr=0 / decimate=1 / interlaced=0 / bluray_compat=0 / constrained_intra=0 / bframes=3 / b_pyramid=2 / b_adapt=1 / b_bias=0 / direct=1 / weightb=1 / open_gop=0 / weightp=2 / keyint=250 / keyint_min=25 / scenecut=40 / intra_refresh=0 / rc_lookahead=40 / rc=abr / mbtree=1 / bitrate=16000 / ratetol=1.0 / qcomp=0.60 / qpmin=0 / qpmax=69 / qpstep=4 / ip_ratio=1.40 / aq=1:1.00
Language                       : English
Codec configuration box        : avcC

Audio
ID                             : 2
Format                         : AAC LC
Format/Info                    : Advanced Audio Codec Low Complexity
Codec ID                       : mp4a-40-2
Duration                       : 1 min 24 s
Bit rate mode                  : Constant
Bit rate                       : 129 kb/s
Channel(s)                     : 2 channels
Channel layout                 : L R
Sampling rate                  : 44.1 kHz
Frame rate                     : 43.066 FPS (1024 SPF)
Compression mode               : Lossy
Stream size                    : 1.30 MiB (1%)
Language                       : English
Default                        : Yes
Alternate group                : 1



网盘下载失效不补:链接: https://pan.baidu.com/s/14k5fzELEHSI3zezS6InnOg
****此区域为收费内容****    需支付 15 金币后可查看立即购买






.

上一篇:韩国比基尼健美比赛现场实拍105[2160P/MP4/381MB]
下一篇:内衣嘉年华联合走秀大会4K珍藏版[2160P/MP4/1.23GB]
回复

使用道具 举报

0

主题

978

帖子

2788

积分

4K家园VIP

Rank: 9Rank: 9Rank: 9

积分
2788
发表于 2019-6-10 22:53:27 来自手机 | 显示全部楼层
占位编辑
回复 支持 反对

使用道具 举报

0

主题

796

帖子

3386

积分

高级会员

Rank: 3Rank: 3

积分
3386
发表于 2019-6-11 00:07:11 | 显示全部楼层

支持楼主,支持4K家园,顶一个!
回复 支持 反对

使用道具 举报

0

主题

6

帖子

70

积分

新手上路

Rank: 1

积分
70
发表于 2019-6-11 00:50:16 | 显示全部楼层
感谢楼主
回复

使用道具 举报

0

主题

38

帖子

158

积分

4K家园VIP

Rank: 9Rank: 9Rank: 9

积分
158
发表于 2019-6-11 01:53:47 | 显示全部楼层
回复

使用道具 举报

0

主题

501

帖子

2714

积分

中级会员

Rank: 4

积分
2714
发表于 2019-6-11 13:43:02 | 显示全部楼层

谢谢分享哦
回复 支持 反对

使用道具 举报

0

主题

970

帖子

2696

积分

4K家园VIP

Rank: 9Rank: 9Rank: 9

积分
2696
发表于 2019-6-11 15:46:02 | 显示全部楼层
在撸一遍。。。
回复 支持 反对

使用道具 举报

0

主题

1232

帖子

3332

积分

4K家园VIP

Rank: 9Rank: 9Rank: 9

积分
3332
发表于 2019-6-11 17:15:41 | 显示全部楼层
楼主呀,,,您太有才了。。。
回复 支持 反对

使用道具 举报

0

主题

371

帖子

2624

积分

4K家园VIP

Rank: 9Rank: 9Rank: 9

积分
2624
QQ
发表于 2019-6-11 21:39:41 | 显示全部楼层
下载珍藏了!!
回复 支持 反对

使用道具 举报

47

主题

1080

帖子

3044

积分

4K家园VIP

Rank: 9Rank: 9Rank: 9

积分
3044
发表于 2019-6-13 12:51:54 | 显示全部楼层
大人,此事必有蹊跷!
回复 支持 反对

使用道具 举报

您需要登录后才可以回帖 登录 | 立即注册

本版积分规则

精彩图文
关闭

站长推荐上一条 /1 下一条

4k家园   ©2019