[4K美女视频] 内衣嘉年华联合走秀大会4K珍藏版[2160P/MP4/1.23GB]

[复制链接]

1159

主题

1302

帖子

8512

积分

超级版主

Rank: 8Rank: 8

积分
8512
 楼主| 发表于 2019-6-8 21:02:04 | 显示全部楼层 |阅读模式
内衣嘉年华联合走秀大会4K珍藏版.mp4_20190608_203155.334.jpg 内衣嘉年华联合走秀大会4K珍藏版.mp4_20190608_203249.312.jpg 内衣嘉年华联合走秀大会4K珍藏版.mp4_20190608_203338.487.jpg 内衣嘉年华联合走秀大会4K珍藏版.mp4_20190608_203633.743.jpg

General
Complete name                  : 内衣嘉年华联合走秀大会4K珍藏版.mp4
Format                         : MPEG-4
Format profile                 : Base Media
Codec ID                       : isom (isom/iso2/avc1/mp41)
File size                      : 1.23 GiB
Duration                       : 10 min 58 s
Overall bit rate               : 16.0 Mb/s
Writing application            : Lavf58.12.100

Video
ID                             : 1
Format                         : AVC
Format/Info                    : Advanced Video Codec
Format profile                 : High@L5.1
Format settings                : CABAC / 4 Ref Frames
Format settings, CABAC         : Yes
Format settings, ReFrames      : 4 frames
Codec ID                       : avc1
Codec ID/Info                  : Advanced Video Coding
Duration                       : 10 min 57 s
Bit rate                       : 16.0 Mb/s
Width                          : 3 836 pixels
Height                         : 2 020 pixels
Display aspect ratio           : 1.899
Frame rate mode                : Constant
Frame rate                     : 30.000 FPS
Color space                    : YUV
Chroma subsampling             : 4:2:0
Bit depth                      : 8 bits
Scan type                      : Progressive
Bits/(Pixel*Frame)             : 0.069
Stream size                    : 1.22 GiB (99%)
Writing library                : x264 core 148
Encoding settings              : cabac=1 / ref=3 / deblock=1:0:0 / analyse=0x3:0x113 / me=hex / subme=7 / psy=1 / psy_rd=1.00:0.00 / mixed_ref=1 / me_range=16 / chroma_me=1 / trellis=1 / 8x8dct=1 / cqm=0 / deadzone=21,11 / fast_pskip=1 / chroma_qp_offset=-2 / threads=6 / lookahead_threads=1 / sliced_threads=0 / nr=0 / decimate=1 / interlaced=0 / bluray_compat=0 / constrained_intra=0 / bframes=3 / b_pyramid=2 / b_adapt=1 / b_bias=0 / direct=1 / weightb=1 / open_gop=0 / weightp=2 / keyint=250 / keyint_min=25 / scenecut=40 / intra_refresh=0 / rc_lookahead=40 / rc=abr / mbtree=1 / bitrate=16000 / ratetol=1.0 / qcomp=0.60 / qpmin=0 / qpmax=69 / qpstep=4 / ip_ratio=1.40 / aq=1:1.00
Language                       : English
Codec configuration box        : avcC

Audio
ID                             : 2
Format                         : AAC LC
Format/Info                    : Advanced Audio Codec Low Complexity
Codec ID                       : mp4a-40-2
Duration                       : 10 min 58 s
Duration_LastFrame             : -22 ms
Bit rate mode                  : Constant
Bit rate                       : 129 kb/s
Channel(s)                     : 2 channels
Channel layout                 : L R
Sampling rate                  : 44.1 kHz
Frame rate                     : 43.066 FPS (1024 SPF)
Compression mode               : Lossy
Stream size                    : 10.1 MiB (1%)
Language                       : English
Default                        : Yes
Alternate group                : 1


网盘下载失效不补:链接: https://pan.baidu.com/s/1vTad_veCW8VWmHjnBMkPrw
****此区域为收费内容****    需支付 15 金币后可查看立即购买









.


上一篇:台湾同人志贩售会爱心泳圈白色泳装妹子[2160P/MP4/159MB]
下一篇:韩国比基尼健美比赛现场实拍107[2160P/MP4/260MB]
回复

使用道具 举报

48

主题

1108

帖子

3126

积分

4K家园VIP

Rank: 9Rank: 9Rank: 9

积分
3126
发表于 2019-6-8 21:02:09 | 显示全部楼层
4K家园资源不错,前排支持
回复 支持 反对

使用道具 举报

0

主题

417

帖子

3118

积分

4K家园VIP

Rank: 9Rank: 9Rank: 9

积分
3118
QQ
发表于 2019-6-8 21:20:26 | 显示全部楼层
收藏支持了!!
回复 支持 反对

使用道具 举报

0

主题

10

帖子

44

积分

新手上路

Rank: 1

积分
44
发表于 2019-6-8 23:18:00 | 显示全部楼层
可惜没金币呀!
回复 支持 反对

使用道具 举报

0

主题

10

帖子

44

积分

新手上路

Rank: 1

积分
44
发表于 2019-6-8 23:35:35 | 显示全部楼层

感谢楼主分享,我默默顶一下,楼主再接再厉!
回复 支持 反对

使用道具 举报

0

主题

938

帖子

2828

积分

4K家园VIP

Rank: 9Rank: 9Rank: 9

积分
2828
发表于 2019-6-9 04:57:17 | 显示全部楼层
哈哈,我只看看不说话
回复 支持 反对

使用道具 举报

53

主题

1166

帖子

3284

积分

4K家园VIP

Rank: 9Rank: 9Rank: 9

积分
3284
发表于 2019-6-9 12:07:57 | 显示全部楼层
前排支持下了哦~
回复 支持 反对

使用道具 举报

0

主题

601

帖子

3236

积分

中级会员

Rank: 4

积分
3236
发表于 2019-6-9 20:15:49 | 显示全部楼层
谢谢版主 希望坚持下去 好资源
回复 支持 反对

使用道具 举报

0

主题

795

帖子

2403

积分

4K家园VIP

Rank: 9Rank: 9Rank: 9

积分
2403
发表于 2019-6-10 00:20:37 来自手机 | 显示全部楼层
哈哈,我只看看不说话
回复 支持 反对

使用道具 举报

0

主题

752

帖子

2270

积分

4K家园VIP

Rank: 9Rank: 9Rank: 9

积分
2270
发表于 2019-6-10 00:53:01 | 显示全部楼层
专业抢沙发的!哈哈
回复 支持 反对

使用道具 举报

您需要登录后才可以回帖 登录 | 立即注册

本版积分规则

精彩图文
关闭

站长推荐上一条 /1 下一条

Archiver|手机版|TAG|Sitemap|新帖|专题|联系我们:邮箱: 4kjia.com@gmail.com   

4k家园   ©2019