[4K美女视频] 韩国比基尼健美比赛现场实拍107[2160P/MP4/260MB]

[复制链接]

394

主题

439

帖子

2867

积分

超级版主

Rank: 8Rank: 8

积分
2867
 楼主| 发表于 7 天前 | 显示全部楼层 |阅读模式

[韩国比基尼健美比赛现场实拍107].mp4_20190608_210821.339.jpg [韩国比基尼健美比赛现场实拍107].mp4_20190608_210836.950.jpg [韩国比基尼健美比赛现场实拍107].mp4_20190608_210922.666.jpg [韩国比基尼健美比赛现场实拍107].mp4_20190608_210935.555.jpg

General
Complete name                  : [韩国比基尼健美比赛现场实拍107].mp4
Format                         : MPEG-4
Format profile                 : Base Media
Codec ID                       : isom (isom/iso2/avc1/mp41)
File size                      : 261 MiB
Duration                       : 2 min 25 s
Overall bit rate               : 15.0 Mb/s
Writing application            : Lavf58.12.100

Video
ID                             : 1
Format                         : AVC
Format/Info                    : Advanced Video Codec
Format profile                 : [email protected]
Format settings                : CABAC / 4 Ref Frames
Format settings, CABAC         : Yes
Format settings, ReFrames      : 4 frames
Codec ID                       : avc1
Codec ID/Info                  : Advanced Video Coding
Duration                       : 2 min 25 s
Bit rate                       : 15.0 Mb/s
Width                          : 3 840 pixels
Height                         : 2 160 pixels
Display aspect ratio           : 16:9
Frame rate mode                : Constant
Frame rate                     : 29.000 FPS
Color space                    : YUV
Chroma subsampling             : 4:2:0
Bit depth                      : 8 bits
Scan type                      : Progressive
Bits/(Pixel*Frame)             : 0.062
Stream size                    : 258 MiB (99%)
Writing library                : x264 core 148
Encoding settings              : cabac=1 / ref=3 / deblock=1:0:0 / analyse=0x3:0x113 / me=hex / subme=7 / psy=1 / psy_rd=1.00:0.00 / mixed_ref=1 / me_range=16 / chroma_me=1 / trellis=1 / 8x8dct=1 / cqm=0 / deadzone=21,11 / fast_pskip=1 / chroma_qp_offset=-2 / threads=6 / lookahead_threads=1 / sliced_threads=0 / nr=0 / decimate=1 / interlaced=0 / bluray_compat=0 / constrained_intra=0 / bframes=3 / b_pyramid=2 / b_adapt=1 / b_bias=0 / direct=1 / weightb=1 / open_gop=0 / weightp=2 / keyint=250 / keyint_min=25 / scenecut=40 / intra_refresh=0 / rc_lookahead=40 / rc=abr / mbtree=1 / bitrate=15000 / ratetol=1.0 / qcomp=0.60 / qpmin=0 / qpmax=69 / qpstep=4 / ip_ratio=1.40 / aq=1:1.00
Language                       : English
Codec configuration box        : avcC

Audio
ID                             : 2
Format                         : AAC LC
Format/Info                    : Advanced Audio Codec Low Complexity
Codec ID                       : mp4a-40-2
Duration                       : 2 min 25 s
Duration_LastFrame             : -19 ms
Bit rate mode                  : Constant
Bit rate                       : 129 kb/s
Channel(s)                     : 2 channels
Channel layout                 : L R
Sampling rate                  : 44.1 kHz
Frame rate                     : 43.066 FPS (1024 SPF)
Compression mode               : Lossy
Stream size                    : 2.23 MiB (1%)
Language                       : English
Default                        : Yes
Alternate group                : 1



网盘下载失效不补:链接: https://pan.baidu.com/s/1qN2tQyHtql3FinjLSnzwaw
****此区域为收费内容****    需支付 15 金币后可查看立即购买








.

上一篇:内衣嘉年华联合走秀大会4K珍藏版[2160P/MP4/1.23GB]
下一篇:2019美女模特韩国车展13[2160P/MP4/249MB]
回复

使用道具 举报

0

主题

881

帖子

2663

积分

4K家园VIP

Rank: 9Rank: 9Rank: 9

积分
2663
发表于 7 天前 | 显示全部楼层
好,很好,非常好!
回复 支持 反对

使用道具 举报

0

主题

240

帖子

1495

积分

4K家园VIP

Rank: 9Rank: 9Rank: 9

积分
1495
QQ
发表于 7 天前 | 显示全部楼层
收藏下来了!!
回复 支持 反对

使用道具 举报

0

主题

896

帖子

2516

积分

4K家园VIP

Rank: 9Rank: 9Rank: 9

积分
2516
发表于 6 天前 | 显示全部楼层
4K版的应该更清晰吧
回复 支持 反对

使用道具 举报

0

主题

2

帖子

19

积分

新手上路

Rank: 1

积分
19
发表于 6 天前 | 显示全部楼层

楼主太厉害了!楼主,I*老*虎*U!我觉得4K家园真是个好地方!
回复 支持 反对

使用道具 举报

32

主题

1038

帖子

2898

积分

4K家园VIP

Rank: 9Rank: 9Rank: 9

积分
2898
发表于 5 天前 | 显示全部楼层
LZ是天才,坚定完毕
回复 支持 反对

使用道具 举报

0

主题

1204

帖子

3266

积分

4K家园VIP

Rank: 9Rank: 9Rank: 9

积分
3266
发表于 5 天前 | 显示全部楼层
围观 围观 沙发在哪里!!!
回复 支持 反对

使用道具 举报

40

主题

1084

帖子

3018

积分

4K家园VIP

Rank: 9Rank: 9Rank: 9

积分
3018
发表于 5 天前 | 显示全部楼层
前排,哇咔咔
回复 支持 反对

使用道具 举报

您需要登录后才可以回帖 登录 | 立即注册

本版积分规则

精彩图文
关闭

站长推荐上一条 /2 下一条

4k家园   ©2019