[4K电影] 秘密总部[简繁粤中字]/Secret Headquarters (2022) 4K高清版本下载

[复制链接]

2327

主题

2476

帖子

1万

积分

超级版主

Rank: 8Rank: 8

积分
17940
 楼主| 发表于 2022-8-13 11:17:04 | 显示全部楼层 |阅读模式
QQ图片20220813111115_副本.png

◎标  题 露西的学校
◎译  名 Snoopy Presents: Lucy's School
◎片  名 Lucy's School
◎年  代 2022
◎产  地 美国
◎类  别 喜剧 / 动画
◎语  言 英语
◎上映日期 2022-08-12(美国网络)
◎IMDb评分 7.6/10 from 14 users 更新 : 2022-08-13
◎IMDb链接 https://www.imdb.com/title/tt21405896/
◎豆瓣评分 0/10 from 0 users
◎豆瓣链接 https://movie.douban.com/subject/36032758/
◎导  演 雷蒙德·S·佩尔西 Raymond S. Persi
◎编  剧 布莱恩·舒尔茨 Bryan Schulz / 克莱格·舒尔茨 Craig Schulz / 科尼利厄斯·乌里亚诺 Cornelius Uliano
◎演  员 艾蒂安·凯利奇 Etienne Kellici
                    海蒂·克拉格滕  Hattie Kragten
                    罗伯特·丁克勒 Robert Tinkler
                    查理·博伊尔 Charlie Boyle
                    雅各布·索利 Jacob Soley
                    特里·迈古林 Terry McGurrin
                    Wyatt White Wyatt White
                    杰克逊·里德 Jackson Reid
                   伊莎贝拉·利奥 Isabella Leo
                   雅各布·马泽拉 Jacob Mazeral
                   霍莉·戈尔斯基 Holly Gorski
                   莱西·佩里 Lexi Perri
                   卡莱布·贝拉万斯 Caleb Bellavance
                   马修·穆奇 Matthew Mucci
                   娜塔莎·内森 Natasha Nathan


◎简  介

  When summer ends, the classroom fun begins. Start the school year with the Peanuts gang when Lucy' sSchool premieres August 12 on Apple TV+.

Video
ID : 1
Format : HEVC
Format/Info : High Efficiency Video Coding
Format profile : Main 10@L5@High
Codec ID : V_MPEGH/ISO/HEVC
Duration : 38 min 9 s
Bit rate : 15.6 Mb/s
Width : 3 840 pixels
Height : 1 920 pixels
Display aspect ratio : 2.000
Frame rate mode : Constant
Frame rate : 23.976 FPS
Color space : YUV
Chroma subsampling : 4:2:0
Bit depth : 10 bits
Bits/(Pixel*Frame) : 0.088
Stream size : 4.16 GiB (95%)
Language : English
Default : Yes
Forced : No
Color range : Limited
Color primaries : BT.709
Transfer characteristics : BT.709
Matrix coefficients : BT.709

Audio
ID : 2
Format : E-AC-3 JOC
Format/Info : Enhanced AC-3 with Joint Object Coding
Commercial name : Dolby Digital Plus with Dolby Atmos
Codec ID : A_EAC3
Duration : 38 min 9 s
Bit rate mode : Constant
Bit rate : 768 kb/s
Channel(s) : 6 channels
Channel layout : L R C LFE Ls Rs
Sampling rate : 48.0 kHz
Frame rate : 31.250 FPS (1536 SPF)
Compression mode : Lossy
Stream size : 210 MiB (5%)
Language : English
Service kind : Complete Main
Default : Yes
Forced : No
Complexity index : 16
Number of dynamic objects : 15
Bed channel count : 1 channel
Bed channel configuration : LFE

Text #1
ID : 3
Format : UTF-8
Codec ID : S_TEXT/UTF8
Codec ID/Info : UTF-8 Plain Text
Duration : 35 min 34 s
Bit rate : 59 b/s
Frame rate : 0.198 FPS
Count of elements : 422
Stream size : 15.5 KiB (0%)
Title : English
Language : English
Default : No
Forced : No

Text #2
ID : 4
Format : UTF-8
Codec ID : S_TEXT/UTF8
Codec ID/Info : UTF-8 Plain Text
Duration : 36 min 13 s
Bit rate : 68 b/s
Frame rate : 0.254 FPS
Count of elements : 551
Stream size : 18.2 KiB (0%)
Title : English (SDH)
Language : English
Default : No
Forced : No

Text #3
ID : 5
Format : UTF-8
Codec ID : S_TEXT/UTF8
Codec ID/Info : UTF-8 Plain Text
Duration : 36 min 12 s
Bit rate : 87 b/s
Frame rate : 0.261 FPS
Count of elements : 568
Stream size : 23.1 KiB (0%)
Title : English (CC)
Language : English
Default : No
Forced : No

Text #4
ID : 6
Format : UTF-8
Codec ID : S_TEXT/UTF8
Codec ID/Info : UTF-8 Plain Text
Duration : 37 min 29 s
Bit rate : 82 b/s
Frame rate : 0.194 FPS
Count of elements : 436
Stream size : 22.5 KiB (0%)
Title : العربية
Language : Arabic
Default : No
Forced : No

Text #5
ID : 7
Format : UTF-8
Codec ID : S_TEXT/UTF8
Codec ID/Info : UTF-8 Plain Text
Duration : 37 min 29 s
Bit rate : 86 b/s
Frame rate : 0.186 FPS
Count of elements : 419
Stream size : 23.7 KiB (0%)
Title : български
Language : Bulgarian
Default : No
Forced : No

Text #6
ID : 8
Format : UTF-8
Codec ID : S_TEXT/UTF8
Codec ID/Info : UTF-8 Plain Text
Duration : 37 min 29 s
Bit rate : 50 b/s
Frame rate : 0.184 FPS
Count of elements : 414
Stream size : 13.9 KiB (0%)
Title : Čeština
Language : Czech
Default : No
Forced : No

Text #7
ID : 9
Format : UTF-8
Codec ID : S_TEXT/UTF8
Codec ID/Info : UTF-8 Plain Text
Duration : 37 min 29 s
Bit rate : 56 b/s
Frame rate : 0.167 FPS
Count of elements : 376
Stream size : 15.6 KiB (0%)
Title : dansk
Language : Danish
Default : No
Forced : No

Text #8
ID : 10
Format : UTF-8
Codec ID : S_TEXT/UTF8
Codec ID/Info : UTF-8 Plain Text
Duration : 37 min 29 s
Bit rate : 63 b/s
Frame rate : 0.189 FPS
Count of elements : 426
Stream size : 17.4 KiB (0%)
Title : Deutsch
Language : German
Default : No
Forced : No

Text #9
ID : 11
Format : UTF-8
Codec ID : S_TEXT/UTF8
Codec ID/Info : UTF-8 Plain Text
Duration : 37 min 29 s
Bit rate : 89 b/s
Frame rate : 0.184 FPS
Count of elements : 415
Stream size : 24.7 KiB (0%)
Title : Ελληνικά
Language : Greek
Default : No
Forced : No

Text #10
ID : 12
Format : UTF-8
Codec ID : S_TEXT/UTF8
Codec ID/Info : UTF-8 Plain Text
Duration : 37 min 29 s
Bit rate : 58 b/s
Frame rate : 0.192 FPS
Count of elements : 431
Stream size : 16.2 KiB (0%)
Title : Español (Latinoamérica)
Language : Spanish
Default : No
Forced : No

Text #11
ID : 13
Format : UTF-8
Codec ID : S_TEXT/UTF8
Codec ID/Info : UTF-8 Plain Text
Duration : 37 min 29 s
Bit rate : 57 b/s
Frame rate : 0.192 FPS
Count of elements : 432
Stream size : 15.9 KiB (0%)
Title : Español (España)
Language : Spanish
Default : No
Forced : No

Text #12
ID : 14
Format : UTF-8
Codec ID : S_TEXT/UTF8
Codec ID/Info : UTF-8 Plain Text
Duration : 37 min 29 s
Bit rate : 50 b/s
Frame rate : 0.179 FPS
Count of elements : 403
Stream size : 13.7 KiB (0%)
Title : eesti
Language : Estonian
Default : No
Forced : No

Text #13
ID : 15
Format : UTF-8
Codec ID : S_TEXT/UTF8
Codec ID/Info : UTF-8 Plain Text
Duration : 37 min 29 s
Bit rate : 53 b/s
Frame rate : 0.189 FPS
Count of elements : 426
Stream size : 14.6 KiB (0%)
Title : Suomi
Language : Finnish
Default : No
Forced : No

Text #14
ID : 16
Format : UTF-8
Codec ID : S_TEXT/UTF8
Codec ID/Info : UTF-8 Plain Text
Duration : 37 min 29 s
Bit rate : 56 b/s
Frame rate : 0.213 FPS
Count of elements : 479
Stream size : 15.6 KiB (0%)
Title : Français (France)
Language : French
Default : No
Forced : No

Text #15
ID : 17
Format : UTF-8
Codec ID : S_TEXT/UTF8
Codec ID/Info : UTF-8 Plain Text
Duration : 37 min 29 s
Bit rate : 56 b/s
Frame rate : 0.213 FPS
Count of elements : 479
Stream size : 15.6 KiB (0%)
Title : Français (Canada)
Language : French
Default : No
Forced : No

Text #16
ID : 18
Format : UTF-8
Codec ID : S_TEXT/UTF8
Codec ID/Info : UTF-8 Plain Text
Duration : 37 min 29 s
Bit rate : 75 b/s
Frame rate : 0.194 FPS
Count of elements : 436
Stream size : 20.7 KiB (0%)
Title : עברית
Language : Hebrew
Default : No
Forced : No

Text #17
ID : 19
Format : UTF-8
Codec ID : S_TEXT/UTF8
Codec ID/Info : UTF-8 Plain Text
Duration : 37 min 29 s
Bit rate : 154 b/s
Frame rate : 0.195 FPS
Count of elements : 438
Stream size : 42.4 KiB (0%)
Title : हिन्दी
Language : Hindi
Default : No
Forced : No

Text #18
ID : 20
Format : UTF-8
Codec ID : S_TEXT/UTF8
Codec ID/Info : UTF-8 Plain Text
Duration : 37 min 29 s
Bit rate : 58 b/s
Frame rate : 0.194 FPS
Count of elements : 436
Stream size : 16.2 KiB (0%)
Title : magyar
Language : Hungarian
Default : No
Forced : No

Text #19
ID : 21
Format : UTF-8
Codec ID : S_TEXT/UTF8
Codec ID/Info : UTF-8 Plain Text
Duration : 37 min 29 s
Bit rate : 57 b/s
Frame rate : 0.193 FPS
Count of elements : 434
Stream size : 15.7 KiB (0%)
Title : Bahasa Indonesia
Language : Indonesian
Default : No
Forced : No

Text #20
ID : 22
Format : UTF-8
Codec ID : S_TEXT/UTF8
Codec ID/Info : UTF-8 Plain Text
Duration : 37 min 29 s
Bit rate : 61 b/s
Frame rate : 0.195 FPS
Count of elements : 438
Stream size : 16.9 KiB (0%)
Title : Italiano
Language : Italian
Default : No
Forced : No

Text #21
ID : 23
Format : UTF-8
Codec ID : S_TEXT/UTF8
Codec ID/Info : UTF-8 Plain Text
Duration : 37 min 29 s
Bit rate : 55 b/s
Frame rate : 0.197 FPS
Count of elements : 444
Stream size : 15.3 KiB (0%)
Title : 日本語
Language : Japanese
Default : No
Forced : No

Text #22
ID : 24
Format : UTF-8
Codec ID : S_TEXT/UTF8
Codec ID/Info : UTF-8 Plain Text
Duration : 37 min 29 s
Bit rate : 60 b/s
Frame rate : 0.195 FPS
Count of elements : 438
Stream size : 16.5 KiB (0%)
Title : 한국어
Language : Korean
Default : No
Forced : No

Text #23
ID : 25
Format : UTF-8
Codec ID : S_TEXT/UTF8
Codec ID/Info : UTF-8 Plain Text
Duration : 37 min 29 s
Bit rate : 52 b/s
Frame rate : 0.188 FPS
Count of elements : 423
Stream size : 14.3 KiB (0%)
Title : lietuvių
Language : Lithuanian
Default : No
Forced : No

Text #24
ID : 26
Format : UTF-8
Codec ID : S_TEXT/UTF8
Codec ID/Info : UTF-8 Plain Text
Duration : 37 min 29 s
Bit rate : 57 b/s
Frame rate : 0.187 FPS
Count of elements : 421
Stream size : 15.7 KiB (0%)
Title : latviešu
Language : Latvian
Default : No
Forced : No

Text #25
ID : 27
Format : UTF-8
Codec ID : S_TEXT/UTF8
Codec ID/Info : UTF-8 Plain Text
Duration : 37 min 29 s
Bit rate : 55 b/s
Frame rate : 0.194 FPS
Count of elements : 436
Stream size : 15.1 KiB (0%)
Title : Bahasa Melayu
Language : Malay
Default : No
Forced : No

Text #26
ID : 28
Format : UTF-8
Codec ID : S_TEXT/UTF8
Codec ID/Info : UTF-8 Plain Text
Duration : 37 min 29 s
Bit rate : 54 b/s
Frame rate : 0.160 FPS
Count of elements : 361
Stream size : 15.0 KiB (0%)
Title : Nederlands
Language : Dutch
Default : No
Forced : No

Text #27
ID : 29
Format : UTF-8
Codec ID : S_TEXT/UTF8
Codec ID/Info : UTF-8 Plain Text
Duration : 37 min 29 s
Bit rate : 57 b/s
Frame rate : 0.177 FPS
Count of elements : 399
Stream size : 15.8 KiB (0%)
Title : Nederlands (België)
Language : Dutch
Default : No
Forced : No

Text #28
ID : 30
Format : UTF-8
Codec ID : S_TEXT/UTF8
Codec ID/Info : UTF-8 Plain Text
Duration : 37 min 29 s
Bit rate : 55 b/s
Frame rate : 0.164 FPS
Count of elements : 369
Stream size : 15.2 KiB (0%)
Title : norsk
Language : Norwegian
Default : No
Forced : No

Text #29
ID : 31
Format : UTF-8
Codec ID : S_TEXT/UTF8
Codec ID/Info : UTF-8 Plain Text
Duration : 37 min 29 s
Bit rate : 55 b/s
Frame rate : 0.191 FPS
Count of elements : 429
Stream size : 15.2 KiB (0%)
Title : polski
Language : Polish
Default : No
Forced : No

Text #30
ID : 32
Format : UTF-8
Codec ID : S_TEXT/UTF8
Codec ID/Info : UTF-8 Plain Text
Duration : 37 min 29 s
Bit rate : 56 b/s
Frame rate : 0.193 FPS
Count of elements : 435
Stream size : 15.6 KiB (0%)
Title : Português (Brasil)
Language : Portuguese
Default : No
Forced : No

Text #31
ID : 33
Format : UTF-8
Codec ID : S_TEXT/UTF8
Codec ID/Info : UTF-8 Plain Text
Duration : 37 min 29 s
Bit rate : 56 b/s
Frame rate : 0.186 FPS
Count of elements : 419
Stream size : 15.4 KiB (0%)
Title : Português
Language : Portuguese
Default : No
Forced : No

Text #32
ID : 34
Format : UTF-8
Codec ID : S_TEXT/UTF8
Codec ID/Info : UTF-8 Plain Text
Duration : 37 min 29 s
Bit rate : 96 b/s
Frame rate : 0.195 FPS
Count of elements : 438
Stream size : 26.5 KiB (0%)
Title : Русский
Language : Russian
Default : No
Forced : No

Text #33
ID : 35
Format : UTF-8
Codec ID : S_TEXT/UTF8
Codec ID/Info : UTF-8 Plain Text
Duration : 37 min 29 s
Bit rate : 55 b/s
Frame rate : 0.194 FPS
Count of elements : 436
Stream size : 15.3 KiB (0%)
Title : Slovenčina
Language : Slovak
Default : No
Forced : No

Text #34
ID : 36
Format : UTF-8
Codec ID : S_TEXT/UTF8
Codec ID/Info : UTF-8 Plain Text
Duration : 37 min 29 s
Bit rate : 50 b/s
Frame rate : 0.187 FPS
Count of elements : 420
Stream size : 13.8 KiB (0%)
Title : slovenščina
Language : Slovenian
Default : No
Forced : No

Text #35
ID : 37
Format : UTF-8
Codec ID : S_TEXT/UTF8
Codec ID/Info : UTF-8 Plain Text
Duration : 37 min 29 s
Bit rate : 59 b/s
Frame rate : 0.191 FPS
Count of elements : 430
Stream size : 16.4 KiB (0%)
Title : Svenska
Language : Swedish
Default : No
Forced : No

Text #36
ID : 38
Format : UTF-8
Codec ID : S_TEXT/UTF8
Codec ID/Info : UTF-8 Plain Text
Duration : 37 min 29 s
Bit rate : 165 b/s
Frame rate : 0.194 FPS
Count of elements : 437
Stream size : 45.4 KiB (0%)
Title : தமிழ்
Language : Tamil
Default : No
Forced : No

Text #37
ID : 39
Format : UTF-8
Codec ID : S_TEXT/UTF8
Codec ID/Info : UTF-8 Plain Text
Duration : 37 min 29 s
Bit rate : 167 b/s
Frame rate : 0.194 FPS
Count of elements : 437
Stream size : 45.9 KiB (0%)
Title : తెలుగు
Language : Telugu
Default : No
Forced : No

Text #38
ID : 40
Format : UTF-8
Codec ID : S_TEXT/UTF8
Codec ID/Info : UTF-8 Plain Text
Duration : 37 min 29 s
Bit rate : 145 b/s
Frame rate : 0.194 FPS
Count of elements : 437
Stream size : 39.9 KiB (0%)
Title : ไทย
Language : Thai
Default : No
Forced : No

Text #39
ID : 41
Format : UTF-8
Codec ID : S_TEXT/UTF8
Codec ID/Info : UTF-8 Plain Text
Duration : 37 min 29 s
Bit rate : 57 b/s
Frame rate : 0.192 FPS
Count of elements : 433
Stream size : 15.8 KiB (0%)
Title : Türkçe
Language : Turkish
Default : No
Forced : No

Text #40
ID : 42
Format : UTF-8
Codec ID : S_TEXT/UTF8
Codec ID/Info : UTF-8 Plain Text
Duration : 37 min 29 s
Bit rate : 83 b/s
Frame rate : 0.195 FPS
Count of elements : 438
Stream size : 22.9 KiB (0%)
Title : українська
Language : Ukrainian
Default : No
Forced : No

Text #41
ID : 43
Format : UTF-8
Codec ID : S_TEXT/UTF8
Codec ID/Info : UTF-8 Plain Text
Duration : 37 min 29 s
Bit rate : 74 b/s
Frame rate : 0.194 FPS
Count of elements : 437
Stream size : 20.6 KiB (0%)
Title : Tiếng Việt
Language : Vietnamese
Default : No
Forced : No

Text #42
ID : 44
Format : UTF-8
Codec ID : S_TEXT/UTF8
Codec ID/Info : UTF-8 Plain Text
Duration : 37 min 29 s
Bit rate : 49 b/s
Frame rate : 0.195 FPS
Count of elements : 438
Stream size : 13.5 KiB (0%)
Title : 中文(粤语)
Language : 中文
Default : No
Forced : No

Text #43
ID : 45
Format : UTF-8
Codec ID : S_TEXT/UTF8
Codec ID/Info : UTF-8 Plain Text
Duration : 37 min 29 s
Bit rate : 48 b/s
Frame rate : 0.194 FPS
Count of elements : 437
Stream size : 13.2 KiB (0%)
Title : 中文(简体)
Language : 中文
Default : No
Forced : No

Text #44
ID : 46
Format : UTF-8
Codec ID : S_TEXT/UTF8
Codec ID/Info : UTF-8 Plain Text
Duration : 37 min 29 s
Bit rate : 50 b/s
Frame rate : 0.195 FPS
Count of elements : 438
Stream size : 13.8 KiB (0%)
Title : 中文(繁體)
Language : 中文
Default : No
Forced : No

资源速度为零或资源敏感被和谐时,推荐使用qBittorrent等下载软件,有条件的推荐115更好的下载软件!

下载地址:


游客,如果您要查看本帖隐藏内容请回复

游客,如果您要查看本帖隐藏内容请回复





上一篇:弗雷加德 / Rogue Agent (2022) 4K高清版本下载
下一篇:真实的谎言 / True Lies (1994) 4K高清版本下载
回复

使用道具 举报

2

主题

1444

帖子

4170

积分

中级会员

Rank: 4

积分
4170
发表于 2022-8-13 11:17:08 | 显示全部楼层
传说中的沙发???哇卡卡
回复 支持 反对

使用道具 举报

2

主题

1486

帖子

4262

积分

4K家园VIP

Rank: 9Rank: 9Rank: 9

积分
4262
发表于 2022-8-13 11:24:02 | 显示全部楼层
啥玩应呀
回复 支持 反对

使用道具 举报

0

主题

1349

帖子

4075

积分

4K家园VIP

Rank: 9Rank: 9Rank: 9

积分
4075
发表于 2022-8-13 11:29:38 | 显示全部楼层
4K应该不错,我也下个看看
回复 支持 反对

使用道具 举报

0

主题

27

帖子

249

积分

新手上路

Rank: 1

积分
249
发表于 2022-8-13 13:02:28 | 显示全部楼层
看看 谢谢啦
回复 支持 反对

使用道具 举报

2

主题

1191

帖子

3593

积分

4K家园VIP

Rank: 9Rank: 9Rank: 9

积分
3593
发表于 2022-8-13 13:17:21 来自手机 | 显示全部楼层
正好需要啊
回复 支持 反对

使用道具 举报

1

主题

1690

帖子

4726

积分

4K家园VIP

Rank: 9Rank: 9Rank: 9

积分
4726
发表于 2022-8-13 14:15:39 | 显示全部楼层
看起来好像不错的样子
回复 支持 反对

使用道具 举报

0

主题

14

帖子

165

积分

新手上路

Rank: 1

积分
165
发表于 2022-8-13 21:09:16 | 显示全部楼层
感谢分享
回复

使用道具 举报

您需要登录后才可以回帖 登录 | 立即注册

本版积分规则

精彩图文
Archiver|手机版|TAG|Sitemap|新帖|专题|联系我们:邮箱: 4kjia.com@gmail.com   

4k家园   ©2019