为全人类 [简繁粤中字] (2022)第一至三季全/4K高清版本下载

[复制链接]

205

主题

228

帖子

2261

积分

版主

Rank: 7Rank: 7Rank: 7

积分
2261
 楼主| 发表于 2022-8-13 12:29:20 | 显示全部楼层 |阅读模式
本帖最后由 美剧小虾 于 2022-8-13 21:11 编辑

3.jpg

◎译  名 为全人类 第一季/太空骄子(港)/太空使命(台)/为了全人类
◎片  名 For All Mankind Season 1
◎年  代 2019
◎产  地 美国
◎类  别 剧情/科幻
◎语  言 英语
◎上映日期 2019-11-01(美国)
◎IMDb评分 7.9/10 from 37114 users 更新 : 2022-08-10
◎IMDb链接 https://www.imdb.com/title/tt7772588/
◎豆瓣评分 8.3/10 from 53.48 users
◎豆瓣链接 https://douban.com/subject/27663962/
◎集  数 10
◎片  长 62分钟
◎导  演 罗纳德·D·摩尔 Ronald D. Moore / 艾伦·考特勒 Allen Coulter / 塞尔吉奥·米米卡-戈赞 Sergio Mimica-Gezzan / 蜜拉·梅农 Meera Menon / 约翰·达尔 John Dahl / 赛斯·戈登 Seth Gordon
◎编  剧 罗纳德·D·摩尔 Ronald D. Moore / 本·纳蒂维 Ben Nedivi / 妮可·比蒂 Nichole Beattie / 马特·沃伯特 Matt Wolpert / 纳伦·尚卡 Naren Shankar / 布拉德·汤普森 Brad Thompson / 丝蒂芬妮·香农 Stephanie Shannon
◎主  演 乔尔·金纳曼 Joel Kinnaman
       迈克尔·多曼 Michael Dorman
       瑞安·施密特 Wrenn Schmidt
       莎拉·琼斯 Sarah Jones
       珊特尔·范圣滕 Shantel VanSanten
       乔迪·巴尔弗 Jodi Balfour
       克里斯·鲍尔 Chris Bauer
       Krys Marshall
       诺亚·哈普斯特 Noah Harpster
       Olivia Trujillo
       Meghan Leathers
       Nick Toren
       斯宾塞·加雷特 Spencer Garrett
       埃里克·拉丁 Eric Ladin
       Arturo del Puerto
       索尼亚·瓦格尔 Sonya Walger
       华莱士·朗翰 Wallace Langham
       迈克尔·哈尔尼 Michael Harney
       内森·科德里 Nathan Corddry
       梅根·多兹 Megan Dodds
       丹·华纳 Dan Warner
       泰迪·布鲁姆 Teddy Blum
       瑞贝卡·薇索基 Rebecca Wisocky
       蓝尼·雅各布森  Lenny Jacobson
       科鲁姆·费奥瑞 Colm Feore
       本·贝格利 Ben Begley
       艾德文·霍德吉 Edwin Hodge
       詹姆斯·乌尔班尼亚克 James Urbaniak
       瑞恩·肯尼迪 Ryan Kennedy
       戴夫·博沃 Dave Power
       泰特·布鲁姆 Tait Blum
       马克·伊瓦涅 Mark Ivanir
       布赖恩·斯特帕尼克 Brian Stepanek
       杰夫·布兰森 Jeff Branson
       查理·霍夫赫梅尔 Charlie Hofheimer
       尼克·维切斯勒 Nick Wechsler
       梅尔·法尔 Mel Fair
       杰西卡·艾莉 Jessica Amlee
       尼克·海曼 Nick Heyman
       大卫·安德鲁 David Andrews
       马特·巴特格里亚 Matt Battaglia
       达林·库珀 Darin Cooper
       杰夫·丹顿 Jeff Denton
       安妮塔·芬利 Anita Finlay
       Ben Solenberger
       Laura Elizabeth Hunter
       Clint Culp


◎简  介


  Apple的流媒体平台AppleTV+旗下自制剧——太空科幻剧《为了全人类》(For All Mankind)发布预告,这是AppleTV+旗下首部曝光预告的剧集。

  该剧由乔尔·金纳曼、莎拉·琼斯(《诅咒》)主演,讲述美国在太空登月竞争中输给了苏联,NASA宇航员们要向火星等更远的地方探索的故事。剧集主创为《太空堡垒卡拉狄加》的幻想剧大手罗纳德·D·摩尔,《冰血暴》制片人马特·沃伯特&本·纳蒂维参与创作。共10集,AppleTV+将在今年秋天上线,具体时间未定。

Video
ID : 1
Format : HEVC
Format/Info : High Efficiency Video Coding
Format profile : Main 10@L5@High
Codec ID : V_MPEGH/ISO/HEVC
Duration : 1 h 16 min
Bit rate : 20.8 Mb/s
Width : 3 838 pixels
Height : 1 920 pixels
Display aspect ratio : 1.999
Frame rate mode : Constant
Frame rate : 23.976 (24000/1001) FPS
Color space : YUV
Chroma subsampling : 4:2:0
Bit depth : 10 bits
Bits/(Pixel*Frame) : 0.118
Stream size : 11.0 GiB (96%)
Language : English
Default : Yes
Forced : No
Color range : Limited
Color primaries : BT.709
Transfer characteristics : BT.709
Matrix coefficients : BT.709

Audio
ID : 2
Format : E-AC-3 JOC
Format/Info : Enhanced AC-3 with Joint Object Coding
Commercial name : Dolby Digital Plus with Dolby Atmos
Codec ID : A_EAC3
Duration : 1 h 16 min
Bit rate mode : Constant
Bit rate : 768 kb/s
Channel(s) : 6 channels
Channel layout : L R C LFE Ls Rs
Sampling rate : 48.0 kHz
Frame rate : 31.250 FPS (1536 SPF)
Compression mode : Lossy
Stream size : 418 MiB (4%)
Language : English
Service kind : Complete Main
Default : Yes
Forced : No
Complexity index : 16
Number of dynamic objects : 15
Bed channel count : 1 channel
Bed channel configuration : LFE

Text #1
ID : 3
Format : UTF-8
Codec ID : S_TEXT/UTF8
Codec ID/Info : UTF-8 Plain Text
Duration : 1 h 15 min
Bit rate : 76 b/s
Count of elements : 897
Stream size : 42.4 KiB (0%)
Title : ا�عرب�ة
Language : Arabic
Default : No
Forced : No

Text #2
ID : 4
Format : UTF-8
Codec ID : S_TEXT/UTF8
Codec ID/Info : UTF-8 Plain Text
Duration : 1 h 15 min
Bit rate : 78 b/s
Count of elements : 898
Stream size : 43.4 KiB (0%)
Title : б�лга��ки
Language : Bulgarian
Default : No
Forced : No

Text #3
ID : 5
Format : UTF-8
Codec ID : S_TEXT/UTF8
Codec ID/Info : UTF-8 Plain Text
Duration : 1 h 15 min
Bit rate : 49 b/s
Count of elements : 889
Stream size : 27.4 KiB (0%)
Title : �eština
Language : Czech
Default : No
Forced : No

Text #4
ID : 6
Format : UTF-8
Codec ID : S_TEXT/UTF8
Codec ID/Info : UTF-8 Plain Text
Duration : 1 h 15 min
Bit rate : 52 b/s
Count of elements : 894
Stream size : 29.1 KiB (0%)
Title : dansk
Language : Danish
Default : No
Forced : No

Text #5
ID : 7
Format : UTF-8
Codec ID : S_TEXT/UTF8
Codec ID/Info : UTF-8 Plain Text
Duration : 1 h 15 min
Bit rate : 56 b/s
Count of elements : 863
Stream size : 31.2 KiB (0%)
Title : Deutsch
Language : German
Default : No
Forced : No

Text #6
ID : 8
Format : UTF-8
Codec ID : S_TEXT/UTF8
Codec ID/Info : UTF-8 Plain Text
Duration : 1 h 15 min
Bit rate : 93 b/s
Count of elements : 896
Stream size : 51.2 KiB (0%)
Title : �λληνικά
Language : Greek
Default : No
Forced : No

Text #7
ID : 9
Format : UTF-8
Codec ID : S_TEXT/UTF8
Codec ID/Info : UTF-8 Plain Text
Duration : 1 h 15 min
Bit rate : 58 b/s
Count of elements : 1033
Stream size : 32.3 KiB (0%)
Title : English (SDH)
Language : English
Default : No
Forced : No

Text #8
ID : 10
Format : UTF-8
Codec ID : S_TEXT/UTF8
Codec ID/Info : UTF-8 Plain Text
Duration : 1 h 15 min
Bit rate : 52 b/s
Count of elements : 880
Stream size : 29.0 KiB (0%)
Title : English
Language : English
Default : No
Forced : No

Text #9
ID : 11
Format : UTF-8
Codec ID : S_TEXT/UTF8
Codec ID/Info : UTF-8 Plain Text
Duration : 21 min 58 s
Bit rate : 8 b/s
Count of elements : 41
Stream size : 1.38 KiB (0%)
Title : English (forced)
Language : English
Default : No
Forced : Yes

Text #10
ID : 12
Format : UTF-8
Codec ID : S_TEXT/UTF8
Codec ID/Info : UTF-8 Plain Text
Duration : 1 h 15 min
Bit rate : 50 b/s
Count of elements : 885
Stream size : 28.2 KiB (0%)
Title : Español (España)
Language : Spanish
Default : No
Forced : No

Text #11
ID : 13
Format : UTF-8
Codec ID : S_TEXT/UTF8
Codec ID/Info : UTF-8 Plain Text
Duration : 1 h 15 min
Bit rate : 53 b/s
Count of elements : 876
Stream size : 29.6 KiB (0%)
Title : Español (Latinoamérica)
Language : Spanish
Default : No
Forced : No

Text #12
ID : 14
Format : UTF-8
Codec ID : S_TEXT/UTF8
Codec ID/Info : UTF-8 Plain Text
Duration : 1 h 15 min
Bit rate : 47 b/s
Count of elements : 893
Stream size : 26.2 KiB (0%)
Title : eesti
Language : Estonian
Default : No
Forced : No

Text #13
ID : 15
Format : UTF-8
Codec ID : S_TEXT/UTF8
Codec ID/Info : UTF-8 Plain Text
Duration : 1 h 15 min
Bit rate : 48 b/s
Count of elements : 894
Stream size : 27.0 KiB (0%)
Title : Suomi
Language : Finnish
Default : No
Forced : No

Text #14
ID : 16
Format : UTF-8
Codec ID : S_TEXT/UTF8
Codec ID/Info : UTF-8 Plain Text
Duration : 1 h 15 min
Bit rate : 47 b/s
Count of elements : 925
Stream size : 26.3 KiB (0%)
Title : Français (France)
Language : French
Default : No
Forced : No

Text #15
ID : 17
Format : UTF-8
Codec ID : S_TEXT/UTF8
Codec ID/Info : UTF-8 Plain Text
Duration : 1 h 15 min
Bit rate : 72 b/s
Count of elements : 897
Stream size : 40.1 KiB (0%)
Title : ע�ר�ת
Language : Hebrew
Default : No
Forced : No

Text #16
ID : 18
Format : UTF-8
Codec ID : S_TEXT/UTF8
Codec ID/Info : UTF-8 Plain Text
Duration : 1 h 15 min
Bit rate : 141 b/s
Count of elements : 898
Stream size : 78.7 KiB (0%)
Title : हिन�द�
Language : Hindi
Default : No
Forced : No

Text #17
ID : 19
Format : UTF-8
Codec ID : S_TEXT/UTF8
Codec ID/Info : UTF-8 Plain Text
Duration : 1 h 15 min
Bit rate : 50 b/s
Count of elements : 891
Stream size : 28.0 KiB (0%)
Title : magyar
Language : Hungarian
Default : No
Forced : No

Text #18
ID : 20
Format : UTF-8
Codec ID : S_TEXT/UTF8
Codec ID/Info : UTF-8 Plain Text
Duration : 1 h 15 min
Bit rate : 52 b/s
Count of elements : 894
Stream size : 29.1 KiB (0%)
Title : Bahasa Indonesia
Language : Indonesian
Default : No
Forced : No

Text #19
ID : 21
Format : UTF-8
Codec ID : S_TEXT/UTF8
Codec ID/Info : UTF-8 Plain Text
Duration : 1 h 15 min
Bit rate : 52 b/s
Count of elements : 875
Stream size : 28.9 KiB (0%)
Title : Italiano
Language : Italian
Default : No
Forced : No

Text #20
ID : 22
Format : UTF-8
Codec ID : S_TEXT/UTF8
Codec ID/Info : UTF-8 Plain Text
Duration : 1 h 15 min
Bit rate : 45 b/s
Count of elements : 902
Stream size : 25.5 KiB (0%)
Title : ���
Language : Japanese
Default : No
Forced : No

Text #21
ID : 23
Format : UTF-8
Codec ID : S_TEXT/UTF8
Codec ID/Info : UTF-8 Plain Text
Duration : 1 h 15 min
Bit rate : 50 b/s
Count of elements : 896
Stream size : 27.8 KiB (0%)
Title : lietuvių
Language : Lithuanian
Default : No
Forced : No

Text #22
ID : 24
Format : UTF-8
Codec ID : S_TEXT/UTF8
Codec ID/Info : UTF-8 Plain Text
Duration : 1 h 15 min
Bit rate : 53 b/s
Count of elements : 894
Stream size : 29.6 KiB (0%)
Title : latviešu
Language : Latvian
Default : No
Forced : No

Text #23
ID : 25
Format : UTF-8
Codec ID : S_TEXT/UTF8
Codec ID/Info : UTF-8 Plain Text
Duration : 1 h 15 min
Bit rate : 55 b/s
Count of elements : 895
Stream size : 30.6 KiB (0%)
Title : Bahasa Melayu
Language : Malay
Default : No
Forced : No

Text #24
ID : 26
Format : UTF-8
Codec ID : S_TEXT/UTF8
Codec ID/Info : UTF-8 Plain Text
Duration : 1 h 15 min
Bit rate : 48 b/s
Count of elements : 881
Stream size : 26.9 KiB (0%)
Title : Nederlands
Language : Dutch
Default : No
Forced : No

Text #25
ID : 27
Format : UTF-8
Codec ID : S_TEXT/UTF8
Codec ID/Info : UTF-8 Plain Text
Duration : 1 h 15 min
Bit rate : 52 b/s
Count of elements : 891
Stream size : 29.1 KiB (0%)
Title : norsk
Language : Norwegian
Default : No
Forced : No

Text #26
ID : 28
Format : UTF-8
Codec ID : S_TEXT/UTF8
Codec ID/Info : UTF-8 Plain Text
Duration : 1 h 15 min
Bit rate : 48 b/s
Count of elements : 892
Stream size : 26.6 KiB (0%)
Title : polski
Language : Polish
Default : No
Forced : No

Text #27
ID : 29
Format : UTF-8
Codec ID : S_TEXT/UTF8
Codec ID/Info : UTF-8 Plain Text
Duration : 1 h 15 min
Bit rate : 48 b/s
Count of elements : 893
Stream size : 26.7 KiB (0%)
Title : Português (Brasil)
Language : Portuguese
Default : No
Forced : No

Text #28
ID : 30
Format : UTF-8
Codec ID : S_TEXT/UTF8
Codec ID/Info : UTF-8 Plain Text
Duration : 1 h 15 min
Bit rate : 54 b/s
Count of elements : 894
Stream size : 29.9 KiB (0%)
Title : Português
Language : Portuguese
Default : No
Forced : No

Text #29
ID : 31
Format : UTF-8
Codec ID : S_TEXT/UTF8
Codec ID/Info : UTF-8 Plain Text
Duration : 1 h 15 min
Bit rate : 82 b/s
Count of elements : 898
Stream size : 45.6 KiB (0%)
Title : Р���кий
Language : Russian
Default : No
Forced : No

Text #30
ID : 32
Format : UTF-8
Codec ID : S_TEXT/UTF8
Codec ID/Info : UTF-8 Plain Text
Duration : 1 h 15 min
Bit rate : 50 b/s
Count of elements : 895
Stream size : 27.9 KiB (0%)
Title : Sloven�ina
Language : Slovak
Default : No
Forced : No

Text #31
ID : 33
Format : UTF-8
Codec ID : S_TEXT/UTF8
Codec ID/Info : UTF-8 Plain Text
Duration : 1 h 15 min
Bit rate : 42 b/s
Count of elements : 895
Stream size : 23.5 KiB (0%)
Title : slovenš�ina
Language : Slovenian
Default : No
Forced : No

Text #32
ID : 34
Format : UTF-8
Codec ID : S_TEXT/UTF8
Codec ID/Info : UTF-8 Plain Text
Duration : 1 h 15 min
Bit rate : 52 b/s
Count of elements : 895
Stream size : 28.9 KiB (0%)
Title : Svenska
Language : Swedish
Default : No
Forced : No

Text #33
ID : 35
Format : UTF-8
Codec ID : S_TEXT/UTF8
Codec ID/Info : UTF-8 Plain Text
Duration : 1 h 15 min
Bit rate : 182 b/s
Count of elements : 897
Stream size : 101 KiB (0%)
Title : தமிழ�
Language : Tamil
Default : No
Forced : No

Text #34
ID : 36
Format : UTF-8
Codec ID : S_TEXT/UTF8
Codec ID/Info : UTF-8 Plain Text
Duration : 1 h 15 min
Bit rate : 150 b/s
Count of elements : 897
Stream size : 83.1 KiB (0%)
Title : త�ల���
Language : Telugu
Default : No
Forced : No

Text #35
ID : 37
Format : UTF-8
Codec ID : S_TEXT/UTF8
Codec ID/Info : UTF-8 Plain Text
Duration : 1 h 15 min
Bit rate : 127 b/s
Count of elements : 897
Stream size : 70.5 KiB (0%)
Title : ��ย
Language : Thai
Default : No
Forced : No

Text #36
ID : 38
Format : UTF-8
Codec ID : S_TEXT/UTF8
Codec ID/Info : UTF-8 Plain Text
Duration : 1 h 15 min
Bit rate : 80 b/s
Count of elements : 897
Stream size : 44.3 KiB (0%)
Title : �к�а�н��ка
Language : Ukrainian
Default : No
Forced : No

Text #37
ID : 39
Format : UTF-8
Codec ID : S_TEXT/UTF8
Codec ID/Info : UTF-8 Plain Text
Duration : 1 h 15 min
Bit rate : 65 b/s
Count of elements : 895
Stream size : 36.6 KiB (0%)
Title : Tiếng Vi�t
Language : Vietnamese
Default : No
Forced : No

Text #38
ID : 40
Format : UTF-8
Codec ID : S_TEXT/UTF8
Codec ID/Info : UTF-8 Plain Text
Duration : 1 h 15 min
Bit rate : 49 b/s
Count of elements : 898
Stream size : 27.5 KiB (0%)
Title : 中文(粤语)
Language : 中文
Default : No
Forced : No

Text #39
ID : 41
Format : UTF-8
Codec ID : S_TEXT/UTF8
Codec ID/Info : UTF-8 Plain Text
Duration : 1 h 15 min
Bit rate : 48 b/s
Count of elements : 898
Stream size : 26.6 KiB (0%)
Title : 中文(简体)
Language : Chinese
Default : No
Forced : No

Text #40
ID : 42
Format : UTF-8
Codec ID : S_TEXT/UTF8
Codec ID/Info : UTF-8 Plain Text
Duration : 1 h 15 min
Bit rate : 46 b/s
Count of elements : 897
Stream size : 25.8 KiB (0%)
Title : 中文(繁体)
Language : 中文
Default : No
Forced : No


2.png

◎译  名 为全人类 第二季/太空骄子(港)/太空使命(台)/为了全人类
◎片  名 For All Mankind Season 2
◎年  代 2021
◎产  地 美国
◎类  别 科幻
◎语  言 英语
◎上映日期 2021-02-19(美国)
◎IMDb评分 7.9/10 from 37114 users 更新 : 2022-08-10
◎IMDb链接 https://www.imdb.com/title/tt11128080/
◎豆瓣评分 8.7/10 from 2714 users
◎豆瓣链接 https://douban.com/subject/34858104/
◎导  演 迈克尔·莫里斯 Michael Morris
◎编  剧 罗纳德·D·摩尔 Ronald D. Moore / 马特·沃伯特 Matt Wolpert / 本·纳蒂维 Ben Nedivi
◎主  演 乔尔·金纳曼 Joel Kinnaman
       迈克尔·多曼 Michael Dorman
       乔迪·巴尔弗 Jodi Balfour
       莎拉·琼斯 Sarah Jones
       珊特尔·范圣滕 Shantel VanSanten
       Maetrix Fitten
       Steve Olson
       索尼亚·瓦格尔 Sonya Walger
       瑞安·施密特 Wrenn Schmidt
       诺亚·哈普斯特 Noah Harpster


◎简  介


  Apple TV+已续订《为全人类》第二季。

Video
ID : 1
Format : HEVC
Format/Info : High Efficiency Video Coding
Format profile : Main 10@L5@High
HDR format : SMPTE ST 2086, HDR10 compatible
Codec ID : V_MPEGH/ISO/HEVC
Duration : 1 h 16 min
Bit rate : 23.9 Mb/s
Width : 3 840 pixels
Height : 1 920 pixels
Display aspect ratio : 2.000
Frame rate mode : Constant
Frame rate : 23.976 (24000/1001) FPS
Color space : YUV
Chroma subsampling : 4:2:0 (Type 2)
Bit depth : 10 bits
Bits/(Pixel*Frame) : 0.135
Stream size : 12.8 GiB (95%)
Language : English
Default : Yes
Forced : No
Color range : Limited
Color primaries : BT.2020
Transfer characteristics : PQ
Matrix coefficients : BT.2020 non-constant
Mastering display color primaries : Display P3
Mastering display luminance : min: 0.0050 cd/m2, max: 1000 cd/m2
Maximum Content Light Level : 8114 cd/m2
Maximum Frame-Average Light Level : 487 cd/m2

Audio
ID : 2
Format : E-AC-3 JOC
Format/Info : Enhanced AC-3 with Joint Object Coding
Commercial name : Dolby Digital Plus with Dolby Atmos
Codec ID : A_EAC3
Duration : 1 h 16 min
Bit rate mode : Constant
Bit rate : 768 kb/s
Channel(s) : 6 channels
Channel layout : L R C LFE Ls Rs
Sampling rate : 48.0 kHz
Frame rate : 31.250 FPS (1536 SPF)
Compression mode : Lossy
Stream size : 420 MiB (3%)
Language : English
Service kind : Complete Main
Default : Yes
Forced : No
Complexity index : 16
Number of dynamic objects : 15
Bed channel count : 1 channel
Bed channel configuration : LFE

Text #1
ID : 3
Format : UTF-8
Codec ID : S_TEXT/UTF8
Codec ID/Info : UTF-8 Plain Text
Title : English [Forced]
Language : English
Default : Yes
Forced : Yes

Text #2
ID : 4
Format : UTF-8
Codec ID : S_TEXT/UTF8
Codec ID/Info : UTF-8 Plain Text
Title : English
Language : English
Default : No
Forced : No

Text #3
ID : 5
Format : UTF-8
Codec ID : S_TEXT/UTF8
Codec ID/Info : UTF-8 Plain Text
Title : Arabic
Language : Arabic
Default : No
Forced : No

Text #4
ID : 6
Format : UTF-8
Codec ID : S_TEXT/UTF8
Codec ID/Info : UTF-8 Plain Text
Title : Bulgarian
Language : Bulgarian
Default : No
Forced : No

Text #5
ID : 7
Format : UTF-8
Codec ID : S_TEXT/UTF8
Codec ID/Info : UTF-8 Plain Text
Title : 中文(简体)
Language : 中文
Default : No
Forced : No

Text #6
ID : 8
Format : UTF-8
Codec ID : S_TEXT/UTF8
Codec ID/Info : UTF-8 Plain Text
Title : 中文(繁体)
Language : 中文
Default : No
Forced : No


Text #7
ID : 9
Format : UTF-8
Codec ID : S_TEXT/UTF8
Codec ID/Info : UTF-8 Plain Text
Title : Czech
Language : Czech
Default : No
Forced : No

Text #8
ID : 10
Format : UTF-8
Codec ID : S_TEXT/UTF8
Codec ID/Info : UTF-8 Plain Text
Title : Danish
Language : Danish
Default : No
Forced : No

Text #9
ID : 11
Format : UTF-8
Codec ID : S_TEXT/UTF8
Codec ID/Info : UTF-8 Plain Text
Title : German
Language : German
Default : No
Forced : No

Text #10
ID : 12
Format : UTF-8
Codec ID : S_TEXT/UTF8
Codec ID/Info : UTF-8 Plain Text
Title : Greek
Language : Greek
Default : No
Forced : No

Text #11
ID : 13
Format : UTF-8
Codec ID : S_TEXT/UTF8
Codec ID/Info : UTF-8 Plain Text
Title : Latin America Spanish
Language : Spanish
Default : No
Forced : No

Text #12
ID : 14
Format : UTF-8
Codec ID : S_TEXT/UTF8
Codec ID/Info : UTF-8 Plain Text
Title : European Spanish
Language : Spanish
Default : No
Forced : No

Text #13
ID : 15
Format : UTF-8
Codec ID : S_TEXT/UTF8
Codec ID/Info : UTF-8 Plain Text
Title : Estonian
Language : Estonian
Default : No
Forced : No

Text #14
ID : 16
Format : UTF-8
Codec ID : S_TEXT/UTF8
Codec ID/Info : UTF-8 Plain Text
Title : Finnish
Language : Finnish
Default : No
Forced : No

Text #15
ID : 17
Format : UTF-8
Codec ID : S_TEXT/UTF8
Codec ID/Info : UTF-8 Plain Text
Title : French Canadian
Language : French
Default : No
Forced : No

Text #16
ID : 18
Format : UTF-8
Codec ID : S_TEXT/UTF8
Codec ID/Info : UTF-8 Plain Text
Title : French
Language : French
Default : No
Forced : No

Text #17
ID : 19
Format : UTF-8
Codec ID : S_TEXT/UTF8
Codec ID/Info : UTF-8 Plain Text
Title : Hebrew
Language : Hebrew
Default : No
Forced : No

Text #18
ID : 20
Format : UTF-8
Codec ID : S_TEXT/UTF8
Codec ID/Info : UTF-8 Plain Text
Title : Hindi
Language : Hindi
Default : No
Forced : No

Text #19
ID : 21
Format : UTF-8
Codec ID : S_TEXT/UTF8
Codec ID/Info : UTF-8 Plain Text
Title : Hungarian
Language : Hungarian
Default : No
Forced : No

Text #20
ID : 22
Format : UTF-8
Codec ID : S_TEXT/UTF8
Codec ID/Info : UTF-8 Plain Text
Title : Indonesian
Language : Indonesian
Default : No
Forced : No

Text #21
ID : 23
Format : UTF-8
Codec ID : S_TEXT/UTF8
Codec ID/Info : UTF-8 Plain Text
Title : Italian
Language : Italian
Default : No
Forced : No

Text #22
ID : 24
Format : UTF-8
Codec ID : S_TEXT/UTF8
Codec ID/Info : UTF-8 Plain Text
Title : Japanese
Language : Japanese
Default : No
Forced : No

Text #23
ID : 25
Format : UTF-8
Codec ID : S_TEXT/UTF8
Codec ID/Info : UTF-8 Plain Text
Language : Korean
Default : No
Forced : No

Text #24
ID : 26
Format : UTF-8
Codec ID : S_TEXT/UTF8
Codec ID/Info : UTF-8 Plain Text
Title : Lithuanian
Language : Lithuanian
Default : No
Forced : No

Text #25
ID : 27
Format : UTF-8
Codec ID : S_TEXT/UTF8
Codec ID/Info : UTF-8 Plain Text
Title : Latvian
Language : Latvian
Default : No
Forced : No

Text #26
ID : 28
Format : UTF-8
Codec ID : S_TEXT/UTF8
Codec ID/Info : UTF-8 Plain Text
Title : Malay
Language : Malay
Default : No
Forced : No

Text #27
ID : 29
Format : UTF-8
Codec ID : S_TEXT/UTF8
Codec ID/Info : UTF-8 Plain Text
Title : Dutch
Language : Dutch
Default : No
Forced : No

Text #28
ID : 30
Format : UTF-8
Codec ID : S_TEXT/UTF8
Codec ID/Info : UTF-8 Plain Text
Title : Norwegian
Language : Norwegian
Default : No
Forced : No

Text #29
ID : 31
Format : UTF-8
Codec ID : S_TEXT/UTF8
Codec ID/Info : UTF-8 Plain Text
Title : Polish
Language : Polish
Default : No
Forced : No

Text #30
ID : 32
Format : UTF-8
Codec ID : S_TEXT/UTF8
Codec ID/Info : UTF-8 Plain Text
Title : Portuguese
Language : Portuguese
Default : No
Forced : No

Text #31
ID : 33
Format : UTF-8
Codec ID : S_TEXT/UTF8
Codec ID/Info : UTF-8 Plain Text
Title : Portuguese Brazilian
Language : Portuguese
Default : No
Forced : No

Text #32
ID : 34
Format : UTF-8
Codec ID : S_TEXT/UTF8
Codec ID/Info : UTF-8 Plain Text
Title : Russian
Language : Russian
Default : No
Forced : No

Text #33
ID : 35
Format : UTF-8
Codec ID : S_TEXT/UTF8
Codec ID/Info : UTF-8 Plain Text
Title : Slovak
Language : Slovak
Default : No
Forced : No

Text #34
ID : 36
Format : UTF-8
Codec ID : S_TEXT/UTF8
Codec ID/Info : UTF-8 Plain Text
Title : Slovenian
Language : Slovenian
Default : No
Forced : No

Text #35
ID : 37
Format : UTF-8
Codec ID : S_TEXT/UTF8
Codec ID/Info : UTF-8 Plain Text
Title : Swedish
Language : Swedish
Default : No
Forced : No

Text #36
ID : 38
Format : UTF-8
Codec ID : S_TEXT/UTF8
Codec ID/Info : UTF-8 Plain Text
Title : Tamil
Language : Tamil
Default : No
Forced : No

Text #37
ID : 39
Format : UTF-8
Codec ID : S_TEXT/UTF8
Codec ID/Info : UTF-8 Plain Text
Title : Telugu
Language : Telugu
Default : No
Forced : No

Text #38
ID : 40
Format : UTF-8
Codec ID : S_TEXT/UTF8
Codec ID/Info : UTF-8 Plain Text
Title : Thai
Language : Thai
Default : No
Forced : No

Text #39
ID : 41
Format : UTF-8
Codec ID : S_TEXT/UTF8
Codec ID/Info : UTF-8 Plain Text
Title : Turkish
Language : Turkish
Default : No
Forced : No

Text #40
ID : 42
Format : UTF-8
Codec ID : S_TEXT/UTF8
Codec ID/Info : UTF-8 Plain Text
Title : Ukrainian
Language : Ukrainian
Default : No
Forced : No

Text #41
ID : 43
Format : UTF-8
Codec ID : S_TEXT/UTF8
Codec ID/Info : UTF-8 Plain Text
Title : Vietnamese
Language : Vietnamese
Default : No
Forced : No

Text #42
ID : 44
Format : UTF-8
Codec ID : S_TEXT/UTF8
Codec ID/Info : UTF-8 Plain Text
Title : 中文(粤语)
Language : 中文
Default : No
Forced : No




1.png

◎译  名 为全人类 第三季/为了全人类
◎片  名 For All Mankind Season 3
◎年  代 2022
◎产  地 美国
◎类  别 剧情/科幻
◎语  言 英语
◎上映日期 2022-06-10(美国)
◎豆瓣评分 /10 from 0 users
◎豆瓣链接 https://douban.com/subject/35282083/
◎集  数 10
◎片  长 60分钟
◎主  演 乔尔·金纳曼 Joel Kinnaman
       珊特尔·范圣滕 Shantel VanSanten
       索尼亚·瓦格尔 Sonya Walger
       杰西卡·塔克 Jessica Tuck
       艾迪·盖瑟吉 Edi Gathegi
       瑞安·施密特 Wrenn Schmidt
       乔迪·巴尔弗 Jodi Balfour
       卡洛儿·佩尼亚 Coral Peña
       吴辛惠 Cynthy Wu
       克莉丝·马绍尔 Krys Marshall
       彼得·亚当奇克 Piotr Adamczyk
       诺亚·哈普斯特 Noah Harpster
       玛德琳·贝塔尼 Madeline Bertani

◎简  介

  Apple TV+续订《为全人类》第三季。

Video
ID : 1
Format : HEVC
Format/Info : High Efficiency Video Coding
Format profile : Main 10@L5@High
HDR format : Dolby Vision, Version 1.0, dvhe.05.06, BL+RPU
Codec ID : V_MPEGH/ISO/HEVC
Duration : 1 h 22 min
Bit rate : 24.0 Mb/s
Width : 3 840 pixels
Height : 1 920 pixels
Display aspect ratio : 2.000
Frame rate mode : Constant
Frame rate : 23.976 (24000/1001) FPS
Color space : YUV
Chroma subsampling : 4:2:0
Bit depth : 10 bits
Bits/(Pixel*Frame) : 0.136
Stream size : 13.8 GiB (95%)
Language : English
Default : Yes
Forced : No

Audio
ID : 2
Format : E-AC-3 JOC
Format/Info : Enhanced AC-3 with Joint Object Coding
Commercial name : Dolby Digital Plus with Dolby Atmos
Codec ID : A_EAC3
Duration : 1 h 22 min
Bit rate mode : Constant
Bit rate : 768 kb/s
Channel(s) : 6 channels
Channel layout : L R C LFE Ls Rs
Sampling rate : 48.0 kHz
Frame rate : 31.250 FPS (1536 SPF)
Compression mode : Lossy
Stream size : 454 MiB (3%)
Language : English
Service kind : Complete Main
Default : Yes
Forced : No
Complexity index : 16
Number of dynamic objects : 15
Bed channel count : 1 channel
Bed channel configuration : LFE

Text #1
ID : 3
Format : UTF-8
Codec ID : S_TEXT/UTF8
Codec ID/Info : UTF-8 Plain Text
Title : English [Forced]
Language : English
Default : Yes
Forced : Yes

Text #2
ID : 4
Format : UTF-8
Codec ID : S_TEXT/UTF8
Codec ID/Info : UTF-8 Plain Text
Title : English
Language : English
Default : No
Forced : No

Text #3
ID : 5
Format : UTF-8
Codec ID : S_TEXT/UTF8
Codec ID/Info : UTF-8 Plain Text
Title : Arabic
Language : Arabic
Default : No
Forced : No

Text #4
ID : 6
Format : UTF-8
Codec ID : S_TEXT/UTF8
Codec ID/Info : UTF-8 Plain Text
Title : Bulgarian
Language : Bulgarian
Default : No
Forced : No

Text #5
ID : 7
Format : UTF-8
Codec ID : S_TEXT/UTF8
Codec ID/Info : UTF-8 Plain Text
Title : 中文(简体)
Language : 中文
Default : No
Forced : No

Text #6
ID : 8
Format : UTF-8
Codec ID : S_TEXT/UTF8
Codec ID/Info : UTF-8 Plain Text
Title : 中文(繁体)
Language : 中文
Default : No
Forced : No

Text #7
ID : 9
Format : UTF-8
Codec ID : S_TEXT/UTF8
Codec ID/Info : UTF-8 Plain Text
Title : 中文(粤语)
Language : 中文
Default : No
Forced : No

Text #8
ID : 10
Format : UTF-8
Codec ID : S_TEXT/UTF8
Codec ID/Info : UTF-8 Plain Text
Title : Czech
Language : Czech
Default : No
Forced : No

Text #9
ID : 11
Format : UTF-8
Codec ID : S_TEXT/UTF8
Codec ID/Info : UTF-8 Plain Text
Title : Danish
Language : Danish
Default : No
Forced : No

Text #10
ID : 12
Format : UTF-8
Codec ID : S_TEXT/UTF8
Codec ID/Info : UTF-8 Plain Text
Title : Dutch
Language : Dutch
Default : No
Forced : No

Text #11
ID : 13
Format : UTF-8
Codec ID : S_TEXT/UTF8
Codec ID/Info : UTF-8 Plain Text
Title : Estonian
Language : Estonian
Default : No
Forced : No

Text #12
ID : 14
Format : UTF-8
Codec ID : S_TEXT/UTF8
Codec ID/Info : UTF-8 Plain Text
Title : European Spanish
Language : Spanish
Default : No
Forced : No

Text #13
ID : 15
Format : UTF-8
Codec ID : S_TEXT/UTF8
Codec ID/Info : UTF-8 Plain Text
Title : Finnish
Language : Finnish
Default : No
Forced : No

Text #14
ID : 16
Format : UTF-8
Codec ID : S_TEXT/UTF8
Codec ID/Info : UTF-8 Plain Text
Title : French
Language : French
Default : No
Forced : No

Text #15
ID : 17
Format : UTF-8
Codec ID : S_TEXT/UTF8
Codec ID/Info : UTF-8 Plain Text
Title : French Canadian
Language : French
Default : No
Forced : No

Text #16
ID : 18
Format : UTF-8
Codec ID : S_TEXT/UTF8
Codec ID/Info : UTF-8 Plain Text
Title : German
Language : German
Default : No
Forced : No

Text #17
ID : 19
Format : UTF-8
Codec ID : S_TEXT/UTF8
Codec ID/Info : UTF-8 Plain Text
Title : Greek
Language : Greek
Default : No
Forced : No

Text #18
ID : 20
Format : UTF-8
Codec ID : S_TEXT/UTF8
Codec ID/Info : UTF-8 Plain Text
Title : Hebrew
Language : Hebrew
Default : No
Forced : No

Text #19
ID : 21
Format : UTF-8
Codec ID : S_TEXT/UTF8
Codec ID/Info : UTF-8 Plain Text
Title : Hindi
Language : Hindi
Default : No
Forced : No

Text #20
ID : 22
Format : UTF-8
Codec ID : S_TEXT/UTF8
Codec ID/Info : UTF-8 Plain Text
Title : Hungarian
Language : Hungarian
Default : No
Forced : No

Text #21
ID : 23
Format : UTF-8
Codec ID : S_TEXT/UTF8
Codec ID/Info : UTF-8 Plain Text
Title : Indonesian
Language : Indonesian
Default : No
Forced : No

Text #22
ID : 24
Format : UTF-8
Codec ID : S_TEXT/UTF8
Codec ID/Info : UTF-8 Plain Text
Title : Italian
Language : Italian
Default : No
Forced : No

Text #23
ID : 25
Format : UTF-8
Codec ID : S_TEXT/UTF8
Codec ID/Info : UTF-8 Plain Text
Title : Japanese
Language : Japanese
Default : No
Forced : No

Text #24
ID : 26
Format : UTF-8
Codec ID : S_TEXT/UTF8
Codec ID/Info : UTF-8 Plain Text
Title : Korean
Language : Korean
Default : No
Forced : No

Text #25
ID : 27
Format : UTF-8
Codec ID : S_TEXT/UTF8
Codec ID/Info : UTF-8 Plain Text
Title : Latin America Spanish
Language : Spanish
Default : No
Forced : No

Text #26
ID : 28
Format : UTF-8
Codec ID : S_TEXT/UTF8
Codec ID/Info : UTF-8 Plain Text
Title : Latvian
Language : Latvian
Default : No
Forced : No

Text #27
ID : 29
Format : UTF-8
Codec ID : S_TEXT/UTF8
Codec ID/Info : UTF-8 Plain Text
Title : Lithuanian
Language : Lithuanian
Default : No
Forced : No

Text #28
ID : 30
Format : UTF-8
Codec ID : S_TEXT/UTF8
Codec ID/Info : UTF-8 Plain Text
Title : Malay
Language : Malay
Default : No
Forced : No

Text #29
ID : 31
Format : UTF-8
Codec ID : S_TEXT/UTF8
Codec ID/Info : UTF-8 Plain Text
Title : Norwegian
Language : Norwegian
Default : No
Forced : No

Text #30
ID : 32
Format : UTF-8
Codec ID : S_TEXT/UTF8
Codec ID/Info : UTF-8 Plain Text
Title : Polish
Language : Polish
Default : No
Forced : No

Text #31
ID : 33
Format : UTF-8
Codec ID : S_TEXT/UTF8
Codec ID/Info : UTF-8 Plain Text
Title : Portuguese
Language : Portuguese
Default : No
Forced : No

Text #32
ID : 34
Format : UTF-8
Codec ID : S_TEXT/UTF8
Codec ID/Info : UTF-8 Plain Text
Title : Portuguese Brazilian
Language : Portuguese
Default : No
Forced : No

Text #33
ID : 35
Format : UTF-8
Codec ID : S_TEXT/UTF8
Codec ID/Info : UTF-8 Plain Text
Title : Russian
Language : Russian
Default : No
Forced : No

Text #34
ID : 36
Format : UTF-8
Codec ID : S_TEXT/UTF8
Codec ID/Info : UTF-8 Plain Text
Title : Slovak
Language : Slovak
Default : No
Forced : No

Text #35
ID : 37
Format : UTF-8
Codec ID : S_TEXT/UTF8
Codec ID/Info : UTF-8 Plain Text
Title : Slovenian
Language : Slovenian
Default : No
Forced : No

Text #36
ID : 38
Format : UTF-8
Codec ID : S_TEXT/UTF8
Codec ID/Info : UTF-8 Plain Text
Title : Swedish
Language : Swedish
Default : No
Forced : No

Text #37
ID : 39
Format : UTF-8
Codec ID : S_TEXT/UTF8
Codec ID/Info : UTF-8 Plain Text
Title : Tamil
Language : Tamil
Default : No
Forced : No

Text #38
ID : 40
Format : UTF-8
Codec ID : S_TEXT/UTF8
Codec ID/Info : UTF-8 Plain Text
Title : Telugu
Language : Telugu
Default : No
Forced : No

Text #39
ID : 41
Format : UTF-8
Codec ID : S_TEXT/UTF8
Codec ID/Info : UTF-8 Plain Text
Title : Thai
Language : Thai
Default : No
Forced : No

Text #40
ID : 42
Format : UTF-8
Codec ID : S_TEXT/UTF8
Codec ID/Info : UTF-8 Plain Text
Title : Turkish
Language : Turkish
Default : No
Forced : No

Text #41
ID : 43
Format : UTF-8
Codec ID : S_TEXT/UTF8
Codec ID/Info : UTF-8 Plain Text
Title : Ukrainian
Language : Ukrainian
Default : No
Forced : No

Text #42
ID : 44
Format : UTF-8
Codec ID : S_TEXT/UTF8
Codec ID/Info : UTF-8 Plain Text
Title : Vietnamese
Language : Vietnamese
Default : No
Forced : No

下载地址:

第一季:(简繁粤中字)
游客,如果您要查看本帖隐藏内容请回复

游客,如果您要查看本帖隐藏内容请回复


第二季:(简繁粤中字)
游客,如果您要查看本帖隐藏内容请回复

游客,如果您要查看本帖隐藏内容请回复


第三季:(简繁粤中字)
游客,如果您要查看本帖隐藏内容请回复

游客,如果您要查看本帖隐藏内容请回复

游客,如果您要查看本帖隐藏内容请回复

游客,如果您要查看本帖隐藏内容请回复






上一篇:成为伊丽莎白 / Becoming Elizabeth (2022) 第一季全/4K高清版本下载
下一篇:这个傻瓜 / This Fool (2022) 第一季全/4K高清版本下载
回复

使用道具 举报

4

主题

1438

帖子

4150

积分

中级会员

Rank: 4

积分
4150
发表于 2022-8-13 12:31:50 | 显示全部楼层
顶顶更健康
回复 支持 反对

使用道具 举报

5

主题

1504

帖子

4356

积分

4K家园VIP

Rank: 9Rank: 9Rank: 9

积分
4356
发表于 2022-8-13 12:31:51 | 显示全部楼层
围观 围观 沙发在哪里!!!
回复 支持 反对

使用道具 举报

1

主题

1398

帖子

4004

积分

4K家园VIP

Rank: 9Rank: 9Rank: 9

积分
4004
发表于 2022-8-13 13:19:43 | 显示全部楼层
占位编辑
回复 支持 反对

使用道具 举报

4

主题

1323

帖子

3989

积分

4K家园VIP

Rank: 9Rank: 9Rank: 9

积分
3989
发表于 2022-8-14 00:17:55 | 显示全部楼层
我也顶起出售广告位
回复 支持 反对

使用道具 举报

1

主题

1332

帖子

4016

积分

4K家园VIP

Rank: 9Rank: 9Rank: 9

积分
4016
发表于 2022-8-14 11:24:41 | 显示全部楼层
回复 支持 反对

使用道具 举报

0

主题

8663

帖子

2万

积分

4K家园VIP

Rank: 9Rank: 9Rank: 9

积分
20189
发表于 2022-8-14 22:29:21 | 显示全部楼层
太好啦&萬分感謝版主的無私發佈分享%
回复 支持 反对

使用道具 举报

0

主题

15

帖子

72

积分

新手上路

Rank: 1

积分
72
发表于 2022-8-16 23:11:54 | 显示全部楼层
感谢楼主分享
回复 支持 反对

使用道具 举报

0

主题

3

帖子

12

积分

新手上路

Rank: 1

积分
12
发表于 2022-8-17 01:20:50 来自手机 | 显示全部楼层
棒棒的
回复

使用道具 举报

您需要登录后才可以回帖 登录 | 立即注册

本版积分规则

精彩图文
Archiver|手机版|TAG|Sitemap|新帖|专题|联系我们:邮箱: 4kjia.com@gmail.com   

4k家园   ©2019