这个傻瓜 / This Fool (2022) 第一季全/4K高清版本下载

[复制链接]

205

主题

228

帖子

2261

积分

版主

Rank: 7Rank: 7Rank: 7

积分
2261
 楼主| 发表于 2022-8-13 12:40:43 | 显示全部楼层 |阅读模式
p2877687078_副本.jpg

◎译  名 这个傻瓜/Punk Ass Bitch
◎片  名 This Fool
◎年  代 2022
◎产  地 美国
◎类  别 喜剧
◎语  言 英语
◎上映日期 2022-08-12(美国)
◎IMDb评分 7.5/10 from 78 users 更新 : 2022-08-13
◎IMDb链接 https://www.imdb.com/title/tt14440068/
◎豆瓣评分 0/10 from 0 users
◎豆瓣链接 https://douban.com/subject/35903112/
◎集  数 10
◎片  长 30分钟
◎主  演 朱莉娅·维拉 Julia Vera
       劳拉·帕塔拉诺 Laura Patalano
       迈克尔·因佩里奥利 Michael Imperioli
       诺埃米·冈萨雷斯 Noemi Gonzalez
       多米尼克·培斯 Dominic Pace
       贝尔纳多·巴迪罗 Bernardo Badillo
       迈克尔·维拉尔 Michael Villar
       阿尔多·冈萨雷斯 Aldo Gonzalez

◎简  介

  该系列剧以胡里奥·洛佩兹为中心,他是一个铁石心肠的朋克婊子,不遗余力地帮助除他自己以外的所有人。这部半小时的电影喜剧灵感来源于明星、共同创作者和现实生活中的朋克婊子埃斯特拉达的生活喜剧和单口喜剧,探讨了胡里奥改善社区、克服与家人的相互依赖问题以及引导中南部工人阶级生活的尝试。
Video
ID : 1
Format : HEVC
Format/Info : High Efficiency Video Coding
Format profile : Main 10@L5.1@Main
Codec ID : V_MPEGH/ISO/HEVC
Duration : 31 min 55 s
Bit rate : 15.2 Mb/s
Width : 3 840 pixels
Height : 2 160 pixels
Display aspect ratio : 16:9
Frame rate mode : Constant
Frame rate : 23.976 (24000/1001) FPS
Color space : YUV
Chroma subsampling : 4:2:0
Bit depth : 10 bits
Bits/(Pixel*Frame) : 0.076
Stream size : 3.39 GiB (96%)
Default : Yes
Forced : No

Audio
ID : 2
Format : E-AC-3
Format/Info : Enhanced AC-3
Commercial name : Dolby Digital Plus
Codec ID : A_EAC3
Duration : 31 min 55 s
Bit rate mode : Constant
Bit rate : 256 kb/s
Channel(s) : 6 channels
Channel layout : L R C LFE Ls Rs
Sampling rate : 48.0 kHz
Frame rate : 31.250 FPS (1536 SPF)
Compression mode : Lossy
Stream size : 58.5 MiB (2%)
Language : English
Service kind : Complete Main
Default : Yes
Forced : No

Text #1
ID : 3
Format : UTF-8
Codec ID : S_TEXT/UTF8
Codec ID/Info : UTF-8 Plain Text
Title : English [SDH]
Language : English
Default : No
Forced : No

Text #2
ID : 4
Format : UTF-8
Codec ID : S_TEXT/UTF8
Codec ID/Info : UTF-8 Plain Text
Title : Spanish [SDH]
Language : Spanish
Default : No
Forced : No

下载地址:


游客,如果您要查看本帖隐藏内容请回复

游客,如果您要查看本帖隐藏内容请回复






上一篇:为全人类 [简繁粤中字] (2022)第一至三季全/4K高清版本下载
下一篇:单身万岁 [简繁中字] (2022)第一至二季全/4K高清版本下载
回复

使用道具 举报

1

主题

1314

帖子

3968

积分

4K家园VIP

Rank: 9Rank: 9Rank: 9

积分
3968
发表于 2022-8-13 12:40:51 | 显示全部楼层
占坑编辑ing
回复 支持 反对

使用道具 举报

0

主题

8663

帖子

2万

积分

4K家园VIP

Rank: 9Rank: 9Rank: 9

积分
20189
发表于 2022-8-14 22:27:52 | 显示全部楼层
太好啦&萬分感謝版主的無私發佈分享%
回复 支持 反对

使用道具 举报

50

主题

1519

帖子

4361

积分

4K家园VIP

Rank: 9Rank: 9Rank: 9

积分
4361
发表于 2022-8-15 11:24:14 | 显示全部楼层
前排顶,很好!
回复 支持 反对

使用道具 举报

5

主题

1689

帖子

4645

积分

4K家园VIP

Rank: 9Rank: 9Rank: 9

积分
4645
发表于 2022-8-16 01:44:39 | 显示全部楼层
向楼主学习
回复 支持 反对

使用道具 举报

49

主题

1555

帖子

4497

积分

4K家园VIP

Rank: 9Rank: 9Rank: 9

积分
4497
发表于 2022-8-16 20:06:20 | 显示全部楼层
占位编辑
回复 支持 反对

使用道具 举报

48

主题

1516

帖子

4366

积分

4K家园VIP

Rank: 9Rank: 9Rank: 9

积分
4366
发表于 2022-8-20 23:27:36 | 显示全部楼层
支持你哈...................................
回复 支持 反对

使用道具 举报

您需要登录后才可以回帖 登录 | 立即注册

本版积分规则

精彩图文
Archiver|手机版|TAG|Sitemap|新帖|专题|联系我们:邮箱: 4kjia.com@gmail.com   

4k家园   ©2019