战利品 [简繁粤中字] / Loot (2022) 第一季全/4K高清版本下载

[复制链接]

205

主题

228

帖子

2261

积分

版主

Rank: 7Rank: 7Rank: 7

积分
2261
 楼主| 发表于 2022-8-13 13:38:55 | 显示全部楼层 |阅读模式
本帖最后由 美剧小虾 于 2022-8-14 11:20 编辑

6b03465fd261a86eaf6e77d6d95b9a2e_副本.jpg

◎译  名 战利品
◎片  名 Loot
◎年  代 2022
◎产  地 美国
◎类  别 喜剧
◎语  言 英语
◎上映日期 2022-06-24(美国)
◎IMDb评分 7.5/10 from 78 users 更新 : 2022-08-13
◎IMDb链接 https://www.imdb.com/title/tt14440068/
◎豆瓣评分 /10 from 0 users
◎豆瓣链接 https://douban.com/subject/35439735/
◎编  剧 马特·哈巴德 Matt Hubbard / 杨维榕 Alan Yang
◎主  演 玛娅·鲁道夫 Maya Rudolph
       亚当·斯科特 Adam Scott
       MJ·罗德里格斯 Mj Rodriguez
       罗恩·芬奇斯 Ron Funches
       奈特·法松 Nat Faxon
       乔尔·金·布斯特 Joel Kim Booster
       斯蒂芬妮·斯泰尔斯 Stephanie Styles
       米根·费伊 Meagen Fay
       安妮·斯泰德曼 Anne Stedman
       奇普·齐纳里 Chip Chinery
       吉安·弗朗哥·托尔迪 Gian Franco Tordi
       奥利维埃·马丁内斯 Olivier Martinez
       维克托·沃尔夫 Victor Wolf
       洁基伯明翰 Gigi Bermingham
        Albert Malafronte
       Elizabeth Thieme Elizabeth Thieme 

◎简  介

        在与结婚20年的丈夫离婚后,莫莉·诺瓦克必须弄清楚如何处理她870亿美元的和解金。她决定重新加入她的慈善基金会,并与现实世界重新建立联系。

Video
ID : 1
Format : HEVC
Format/Info : High Efficiency Video Coding
Format profile : Main 10@L5@High
HDR format : Dolby Vision, Version 1.0, dvhe.05.06, BL+RPU
Codec ID : dvhe
Codec ID/Info : High Efficiency Video Coding with Dolby Vision
Duration : 33 min 34 s
Bit rate : 24.7 Mb/s
Width : 3 840 pixels
Height : 1 920 pixels
Display aspect ratio : 2.000
Frame rate mode : Constant
Frame rate : 23.976 (24000/1001) FPS
Color space : YUV
Chroma subsampling : 4:2:0
Bit depth : 10 bits
Bits/(Pixel*Frame) : 0.139
Stream size : 5.78 GiB (97%)
Default : Yes
Alternate group : 1
Encoded date : UTC 2022-08-12 03:30:08
Tagged date : UTC 2022-08-12 03:30:26
Codec configuration box : hvcC+dvcC

Audio
ID : 2
Format : E-AC-3 JOC
Format/Info : Enhanced AC-3 with Joint Object Coding
Commercial name : Dolby Digital Plus with Dolby Atmos
Codec ID : ec-3
Duration : 33 min 34 s
Bit rate mode : Constant
Bit rate : 768 kb/s
Maximum bit rate : 811 kb/s
Channel(s) : 6 channels
Channel layout : L R C LFE Ls Rs
Sampling rate : 48.0 kHz
Frame rate : 31.250 FPS (1536 SPF)
Compression mode : Lossy
Stream size : 184 MiB (3%)
Title : English
Language : English
Service kind : Complete Main
Default : Yes
Alternate group : 1
Tagged date : UTC 2022-08-12 03:30:26
Complexity index : Not present / 16
Number of dynamic objects : 15
Bed channel count : 1 channel
Bed channel configuration : LFE

Text #1
ID : 3
Format : Timed Text
Codec ID : tx3g
Duration : 32 min 27 s
Bit rate mode : Variable
Bit rate : 90 b/s
Frame rate : 0.542 FPS
Stream size : 21.4 KiB (0%)
Title : English
Language : English
Forced : No
Encoded date : UTC 2022-08-12 03:30:24
Tagged date : UTC 2022-08-12 03:30:26

Text #2
ID : 4
Format : Timed Text
Codec ID : tx3g
Duration : 33 min 26 s
Bit rate mode : Variable
Bit rate : 120 b/s
Frame rate : 0.536 FPS
Stream size : 29.3 KiB (0%)
Title : Arabic
Language : Arabic
Forced : No
Encoded date : UTC 2022-08-12 03:30:24
Tagged date : UTC 2022-08-12 03:30:26

Text #3
ID : 5
Format : Timed Text
Codec ID : tx3g
Duration : 33 min 26 s
Bit rate mode : Variable
Bit rate : 119 b/s
Frame rate : 0.492 FPS
Stream size : 29.2 KiB (0%)
Title : Bulgarian
Language : Bulgarian
Forced : No
Encoded date : UTC 2022-08-12 03:30:24
Tagged date : UTC 2022-08-12 03:30:26

Text #4
ID : 6
Format : Timed Text
Codec ID : tx3g
Duration : 33 min 26 s
Bit rate mode : Variable
Bit rate : 74 b/s
Frame rate : 0.537 FPS
Stream size : 18.1 KiB (0%)
Title : 中文(粤语)
Language : 中文
Forced : No
Encoded date : UTC 2022-08-12 03:30:24
Tagged date : UTC 2022-08-12 03:30:26

Text #5
ID : 7
Format : Timed Text
Codec ID : tx3g
Duration : 33 min 26 s
Bit rate mode : Variable
Bit rate : 78 b/s
Frame rate : 0.536 FPS
Stream size : 19.1 KiB (0%)
Title : 中文(简体)
Language : 中文
Forced : No
Encoded date : UTC 2022-08-12 03:30:24
Tagged date : UTC 2022-08-12 03:30:26

Text #6
ID : 8
Format : Timed Text
Codec ID : tx3g
Duration : 33 min 26 s
Bit rate mode : Variable
Bit rate : 80 b/s
Frame rate : 0.537 FPS
Stream size : 19.6 KiB (0%)
Title : 中文(繁体)
Language : 中文
Forced : No
Encoded date : UTC 2022-08-12 03:30:24
Tagged date : UTC 2022-08-12 03:30:26

Text #7
ID : 9
Format : Timed Text
Codec ID : tx3g
Duration : 33 min 26 s
Bit rate mode : Variable
Bit rate : 75 b/s
Frame rate : 0.497 FPS
Stream size : 18.5 KiB (0%)
Title : Czech
Language : Czech
Forced : No
Encoded date : UTC 2022-08-12 03:30:24
Tagged date : UTC 2022-08-12 03:30:26

Text #8
ID : 10
Format : Timed Text
Codec ID : tx3g
Duration : 33 min 26 s
Bit rate mode : Variable
Bit rate : 73 b/s
Frame rate : 0.399 FPS
Stream size : 18.0 KiB (0%)
Title : Danish
Language : Danish
Forced : No
Encoded date : UTC 2022-08-12 03:30:24
Tagged date : UTC 2022-08-12 03:30:26

Text #9
ID : 11
Format : Timed Text
Codec ID : tx3g
Duration : 33 min 26 s
Bit rate mode : Variable
Bit rate : 76 b/s
Frame rate : 0.422 FPS
Stream size : 18.5 KiB (0%)
Title : Dutch
Language : Dutch
Forced : No
Encoded date : UTC 2022-08-12 03:30:24
Tagged date : UTC 2022-08-12 03:30:26

Text #10
ID : 12
Format : Timed Text
Codec ID : tx3g
Duration : 33 min 26 s
Bit rate mode : Variable
Bit rate : 79 b/s
Frame rate : 0.489 FPS
Stream size : 19.3 KiB (0%)
Title : Estonian
Language : Estonian
Forced : No
Encoded date : UTC 2022-08-12 03:30:24
Tagged date : UTC 2022-08-12 03:30:26

Text #11
ID : 13
Format : Timed Text
Codec ID : tx3g
Duration : 33 min 26 s
Bit rate mode : Variable
Bit rate : 81 b/s
Frame rate : 0.522 FPS
Stream size : 19.9 KiB (0%)
Title : Finnish
Language : Finnish
Forced : No
Encoded date : UTC 2022-08-12 03:30:24
Tagged date : UTC 2022-08-12 03:30:26

Text #12
ID : 14
Format : Timed Text
Codec ID : tx3g
Duration : 33 min 21 s
Bit rate mode : Variable
Bit rate : 76 b/s
Frame rate : 0.522 FPS
Stream size : 18.6 KiB (0%)
Title : French
Language : French
Forced : No
Encoded date : UTC 2022-08-12 03:30:25
Tagged date : UTC 2022-08-12 03:30:26

Text #13
ID : 15
Format : Timed Text
Codec ID : tx3g
Duration : 33 min 21 s
Bit rate mode : Variable
Bit rate : 76 b/s
Frame rate : 0.523 FPS
Stream size : 18.6 KiB (0%)
Title : French
Language : French
Forced : No
Encoded date : UTC 2022-08-12 03:30:25
Tagged date : UTC 2022-08-12 03:30:26

Text #14
ID : 16
Format : Timed Text
Codec ID : tx3g
Duration : 33 min 25 s
Bit rate mode : Variable
Bit rate : 84 b/s
Frame rate : 0.469 FPS
Stream size : 20.5 KiB (0%)
Title : German
Language : German
Forced : No
Encoded date : UTC 2022-08-12 03:30:25
Tagged date : UTC 2022-08-12 03:30:26

Text #15
ID : 17
Format : Timed Text
Codec ID : tx3g
Duration : 33 min 26 s
Bit rate mode : Variable
Bit rate : 134 b/s
Frame rate : 0.506 FPS
Stream size : 32.8 KiB (0%)
Title : Greek
Language : Greek
Forced : No
Encoded date : UTC 2022-08-12 03:30:25
Tagged date : UTC 2022-08-12 03:30:26

Text #16
ID : 18
Format : Timed Text
Codec ID : tx3g
Duration : 33 min 26 s
Bit rate mode : Variable
Bit rate : 114 b/s
Frame rate : 0.536 FPS
Stream size : 27.8 KiB (0%)
Title : Hebrew
Language : Hebrew
Forced : No
Encoded date : UTC 2022-08-12 03:30:25
Tagged date : UTC 2022-08-12 03:30:26

Text #17
ID : 19
Format : Timed Text
Codec ID : tx3g
Duration : 33 min 26 s
Bit rate mode : Variable
Bit rate : 224 b/s
Frame rate : 0.537 FPS
Stream size : 54.8 KiB (0%)
Title : Hindi
Language : Hindi
Forced : No
Encoded date : UTC 2022-08-12 03:30:25
Tagged date : UTC 2022-08-12 03:30:26

Text #18
ID : 20
Format : Timed Text
Codec ID : tx3g
Duration : 33 min 26 s
Bit rate mode : Variable
Bit rate : 89 b/s
Frame rate : 0.536 FPS
Stream size : 21.7 KiB (0%)
Title : Hungarian
Language : Hungarian
Forced : No
Encoded date : UTC 2022-08-12 03:30:25
Tagged date : UTC 2022-08-12 03:30:26

Text #19
ID : 21
Format : Timed Text
Codec ID : tx3g
Duration : 33 min 26 s
Bit rate mode : Variable
Bit rate : 89 b/s
Frame rate : 0.534 FPS
Stream size : 21.8 KiB (0%)
Title : Indonesian
Language : Indonesian
Forced : No
Encoded date : UTC 2022-08-12 03:30:25
Tagged date : UTC 2022-08-12 03:30:26

Text #20
ID : 22
Format : Timed Text
Codec ID : tx3g
Duration : 33 min 28 s
Bit rate mode : Variable
Bit rate : 92 b/s
Frame rate : 0.536 FPS
Stream size : 22.6 KiB (0%)
Title : Italian
Language : Italian
Forced : No
Encoded date : UTC 2022-08-12 03:30:25
Tagged date : UTC 2022-08-12 03:30:26

Text #21
ID : 23
Format : Timed Text
Codec ID : tx3g
Duration : 33 min 25 s
Bit rate mode : Variable
Bit rate : 73 b/s
Frame rate : 0.517 FPS
Stream size : 17.9 KiB (0%)
Title : Japanese
Language : Japanese
Forced : No
Encoded date : UTC 2022-08-12 03:30:25
Tagged date : UTC 2022-08-12 03:30:26

Text #22
ID : 24
Format : Timed Text
Codec ID : tx3g
Duration : 33 min 26 s
Bit rate mode : Variable
Bit rate : 96 b/s
Frame rate : 0.535 FPS
Stream size : 23.5 KiB (0%)
Title : Korean
Language : Korean
Forced : No
Encoded date : UTC 2022-08-12 03:30:25
Tagged date : UTC 2022-08-12 03:30:26

Text #23
ID : 25
Format : Timed Text
Codec ID : tx3g
Duration : 33 min 26 s
Bit rate mode : Variable
Bit rate : 87 b/s
Frame rate : 0.530 FPS
Stream size : 21.2 KiB (0%)
Title : Latvian
Language : Latvian
Forced : No
Encoded date : UTC 2022-08-12 03:30:25
Tagged date : UTC 2022-08-12 03:30:26

Text #24
ID : 26
Format : Timed Text
Codec ID : tx3g
Duration : 33 min 26 s
Bit rate mode : Variable
Bit rate : 87 b/s
Frame rate : 0.534 FPS
Stream size : 21.2 KiB (0%)
Title : Lithuanian
Language : Lithuanian
Forced : No
Encoded date : UTC 2022-08-12 03:30:25
Tagged date : UTC 2022-08-12 03:30:26

Text #25
ID : 27
Format : Timed Text
Codec ID : tx3g
Duration : 33 min 26 s
Bit rate mode : Variable
Bit rate : 80 b/s
Frame rate : 0.534 FPS
Stream size : 19.7 KiB (0%)
Title : Malay
Language : Malay
Forced : No
Encoded date : UTC 2022-08-12 03:30:25
Tagged date : UTC 2022-08-12 03:30:26

Text #26
ID : 28
Format : Timed Text
Codec ID : tx3g
Duration : 33 min 26 s
Bit rate mode : Variable
Bit rate : 79 b/s
Frame rate : 0.431 FPS
Stream size : 19.3 KiB (0%)
Title : Norwegian
Language : Norwegian
Forced : No
Encoded date : UTC 2022-08-12 03:30:25
Tagged date : UTC 2022-08-12 03:30:26

Text #27
ID : 29
Format : Timed Text
Codec ID : tx3g
Duration : 33 min 26 s
Bit rate mode : Variable
Bit rate : 81 b/s
Frame rate : 0.523 FPS
Stream size : 20.0 KiB (0%)
Title : Polish
Language : Polish
Forced : No
Encoded date : UTC 2022-08-12 03:30:25
Tagged date : UTC 2022-08-12 03:30:26

Text #28
ID : 30
Format : Timed Text
Codec ID : tx3g
Duration : 33 min 26 s
Bit rate mode : Variable
Bit rate : 84 b/s
Frame rate : 0.530 FPS
Stream size : 20.5 KiB (0%)
Title : Portuguese
Language : Portuguese
Forced : No
Encoded date : UTC 2022-08-12 03:30:25
Tagged date : UTC 2022-08-12 03:30:26

Text #29
ID : 31
Format : Timed Text
Codec ID : tx3g
Duration : 33 min 26 s
Bit rate mode : Variable
Bit rate : 79 b/s
Frame rate : 0.515 FPS
Stream size : 19.3 KiB (0%)
Title : Portuguese
Language : Portuguese
Forced : No
Encoded date : UTC 2022-08-12 03:30:25
Tagged date : UTC 2022-08-12 03:30:26

Text #30
ID : 32
Format : Timed Text
Codec ID : tx3g
Duration : 33 min 26 s
Bit rate mode : Variable
Bit rate : 135 b/s
Frame rate : 0.537 FPS
Stream size : 33.0 KiB (0%)
Title : Russian
Language : Russian
Forced : No
Encoded date : UTC 2022-08-12 03:30:25
Tagged date : UTC 2022-08-12 03:30:26

Text #31
ID : 33
Format : Timed Text
Codec ID : tx3g
Duration : 33 min 26 s
Bit rate mode : Variable
Bit rate : 81 b/s
Frame rate : 0.534 FPS
Stream size : 19.9 KiB (0%)
Title : Slovak
Language : Slovak
Forced : No
Encoded date : UTC 2022-08-12 03:30:25
Tagged date : UTC 2022-08-12 03:30:26

Text #32
ID : 34
Format : Timed Text
Codec ID : tx3g
Duration : 33 min 26 s
Bit rate mode : Variable
Bit rate : 65 b/s
Frame rate : 0.512 FPS
Stream size : 16.0 KiB (0%)
Title : Slovenian
Language : Slovenian
Forced : No
Encoded date : UTC 2022-08-12 03:30:26
Tagged date : UTC 2022-08-12 03:30:26

Text #33
ID : 35
Format : Timed Text
Codec ID : tx3g
Duration : 33 min 26 s
Bit rate mode : Variable
Bit rate : 85 b/s
Frame rate : 0.538 FPS
Stream size : 20.8 KiB (0%)
Title : Spanish
Language : Spanish
Forced : No
Encoded date : UTC 2022-08-12 03:30:26
Tagged date : UTC 2022-08-12 03:30:26

Text #34
ID : 36
Format : Timed Text
Codec ID : tx3g
Duration : 33 min 26 s
Bit rate mode : Variable
Bit rate : 86 b/s
Frame rate : 0.542 FPS
Stream size : 21.2 KiB (0%)
Title : Spanish-EU
Language : Spanish
Forced : No
Encoded date : UTC 2022-08-12 03:30:26
Tagged date : UTC 2022-08-12 03:30:26

Text #35
ID : 37
Format : Timed Text
Codec ID : tx3g
Duration : 33 min 26 s
Bit rate mode : Variable
Bit rate : 71 b/s
Frame rate : 0.472 FPS
Stream size : 17.3 KiB (0%)
Title : Swedish
Language : Swedish
Forced : No
Encoded date : UTC 2022-08-12 03:30:26
Tagged date : UTC 2022-08-12 03:30:26

Text #36
ID : 38
Format : Timed Text
Codec ID : tx3g
Duration : 33 min 26 s
Bit rate mode : Variable
Bit rate : 257 b/s
Frame rate : 0.536 FPS
Stream size : 62.9 KiB (0%)
Title : Tamil
Language : Tamil
Forced : No
Encoded date : UTC 2022-08-12 03:30:26
Tagged date : UTC 2022-08-12 03:30:26

Text #37
ID : 39
Format : Timed Text
Codec ID : tx3g
Duration : 33 min 26 s
Bit rate mode : Variable
Bit rate : 241 b/s
Frame rate : 0.536 FPS
Stream size : 59.0 KiB (0%)
Title : Telugu
Language : Telugu
Forced : No
Encoded date : UTC 2022-08-12 03:30:26
Tagged date : UTC 2022-08-12 03:30:26

Text #38
ID : 40
Format : Timed Text
Codec ID : tx3g
Duration : 33 min 26 s
Bit rate mode : Variable
Bit rate : 204 b/s
Frame rate : 0.536 FPS
Stream size : 50.1 KiB (0%)
Title : Thai
Language : Thai
Forced : No
Encoded date : UTC 2022-08-12 03:30:26
Tagged date : UTC 2022-08-12 03:30:26

Text #39
ID : 41
Format : Timed Text
Codec ID : tx3g
Duration : 33 min 26 s
Bit rate mode : Variable
Bit rate : 86 b/s
Frame rate : 0.526 FPS
Stream size : 21.2 KiB (0%)
Title : Turkish
Language : Turkish
Forced : No
Encoded date : UTC 2022-08-12 03:30:26
Tagged date : UTC 2022-08-12 03:30:26

Text #40
ID : 42
Format : Timed Text
Codec ID : tx3g
Duration : 33 min 26 s
Bit rate mode : Variable
Bit rate : 120 b/s
Frame rate : 0.537 FPS
Stream size : 29.3 KiB (0%)
Title : Ukrainian
Language : Ukrainian
Forced : No
Encoded date : UTC 2022-08-12 03:30:26
Tagged date : UTC 2022-08-12 03:30:26

Text #41
ID : 43
Format : Timed Text
Codec ID : tx3g
Duration : 33 min 26 s
Bit rate mode : Variable
Bit rate : 108 b/s
Frame rate : 0.537 FPS
Stream size : 26.4 KiB (0%)
Title : Vietnamese
Language : Vietnamese
Forced : No
Encoded date : UTC 2022-08-12 03:30:26
Tagged date : UTC 2022-08-12 03:30:26

下载地址:

游客,如果您要查看本帖隐藏内容请回复

游客,如果您要查看本帖隐藏内容请回复

游客,如果您要查看本帖隐藏内容请回复

游客,如果您要查看本帖隐藏内容请回复






上一篇:鲁保罗变装皇后秀:全明星 (2022) 第七季全/4K高清版本下载
下一篇:红粉联盟 [简繁中字] (2022) 第一季全/4K高清版本下载
回复

使用道具 举报

2

主题

1592

帖子

4622

积分

4K家园VIP

Rank: 9Rank: 9Rank: 9

积分
4622
发表于 2022-8-13 13:39:07 | 显示全部楼层
秀起来~
回复 支持 反对

使用道具 举报

0

主题

3

帖子

33

积分

新手上路

Rank: 1

积分
33
发表于 2022-8-13 17:29:28 | 显示全部楼层
机构行家陆海空很厉害
回复 支持 反对

使用道具 举报

4

主题

1678

帖子

4604

积分

4K家园VIP

Rank: 9Rank: 9Rank: 9

积分
4604
发表于 2022-8-13 20:37:42 | 显示全部楼层
广告位,,坐下看看
回复 支持 反对

使用道具 举报

0

主题

2

帖子

18

积分

新手上路

Rank: 1

积分
18
发表于 2022-8-13 21:02:24 | 显示全部楼层
感谢分享
回复

使用道具 举报

0

主题

8663

帖子

2万

积分

4K家园VIP

Rank: 9Rank: 9Rank: 9

积分
20189
发表于 2022-8-14 22:27:26 | 显示全部楼层
太好啦&萬分感謝版主的無私發佈分享%
回复 支持 反对

使用道具 举报

50

主题

1500

帖子

4272

积分

4K家园VIP

Rank: 9Rank: 9Rank: 9

积分
4272
发表于 2022-9-6 03:55:00 | 显示全部楼层
我了个去,顶了
回复 支持 反对

使用道具 举报

39

主题

1493

帖子

4275

积分

4K家园VIP

Rank: 9Rank: 9Rank: 9

积分
4275
发表于 2022-9-12 16:38:29 来自手机 | 显示全部楼层
边撸边过
回复 支持 反对

使用道具 举报

49

主题

1490

帖子

4272

积分

4K家园VIP

Rank: 9Rank: 9Rank: 9

积分
4272
发表于 2022-9-17 11:18:30 | 显示全部楼层
试试看吧
回复 支持 反对

使用道具 举报

您需要登录后才可以回帖 登录 | 立即注册

本版积分规则

精彩图文
Archiver|手机版|TAG|Sitemap|新帖|专题|联系我们:邮箱: 4kjia.com@gmail.com   

4k家园   ©2019