[韩国4KMV] EVERGLOW- (Bon Bon Chocolat) [2160P/MKV/396MB]

[复制链接]

1095

主题

1236

帖子

7803

积分

超级版主

Rank: 8Rank: 8

积分
7803
 楼主| 发表于 2019-6-10 22:53:27 | 显示全部楼层 |阅读模式

EVERGLOW- (Bon Bon Chocolat)[4K].mkv_20190609_205714.616.jpg EVERGLOW- (Bon Bon Chocolat)[4K].mkv_20190609_205736.011.jpg EVERGLOW- (Bon Bon Chocolat)[4K].mkv_20190609_205747.913.jpg EVERGLOW- (Bon Bon Chocolat)[4K].mkv_20190609_205753.353.jpg EVERGLOW- (Bon Bon Chocolat)[4K].mkv_20190609_205808.425.jpg

General
Unique ID                      : 302253097196953734718060236171724449070 (0xE363D43DC532009C526C7C70A47BE52E)
Complete name                  : admin\Desktop\EVERGLOW-  (Bon Bon Chocolat)[4K].mkv
Format                         : Matroska
Format version                 : Version 4
File size                      : 397 MiB
Duration                       : 3 min 48 s
Overall bit rate mode          : Variable
Overall bit rate               : 14.6 Mb/s
Writing application            : Lavf56.40.101
Writing library                : Lavf56.40.101

Video
ID                             : 1
Format                         : VP9
Codec ID                       : V_VP9
Duration                       : 3 min 48 s
Bit rate                       : 14.2 Mb/s
Width                          : 3 840 pixels
Height                         : 2 160 pixels
Display aspect ratio           : 16:9
Frame rate mode                : Variable
Stream size                    : 385 MiB (97%)
Default                        : Yes
Forced                         : No

Audio
ID                             : 2
Format                         : Vorbis
Format settings, Floor         : 1
Codec ID                       : A_VORBIS
Duration                       : 3 min 48 s
Bit rate mode                  : Variable
Bit rate                       : 128 kb/s
Channel(s)                     : 2 channels
Sampling rate                  : 44.1 kHz
Compression mode               : Lossy
Stream size                    : 3.49 MiB (1%)
Writing application            : Google
Default                        : Yes
Forced                         : No



网盘下载失效不补:链接: https://pan.baidu.com/s/1xgWeFc-4YE6hGT1i4ihRQA
****此区域为收费内容****    需支付 25 金币后可查看立即购买





.

上一篇:[2019汉城汽车展]Pocket Girls-Lip & Hip 60fps [2160P/MP4/419MB]
下一篇:[韩国4KMV]红色天鹅绒-哑巴 EVC-60fps-10bit [2160P/TS/830MB]
回复

使用道具 举报

48

主题

1100

帖子

3122

积分

4K家园VIP

Rank: 9Rank: 9Rank: 9

积分
3122
发表于 2019-6-10 22:54:00 | 显示全部楼层
前排,哇咔咔
回复 支持 反对

使用道具 举报

0

主题

834

帖子

3527

积分

中级会员

Rank: 4

积分
3527
发表于 2019-6-11 00:06:51 | 显示全部楼层

感谢楼主分享,我默默顶一下,楼主再接再厉!
回复 支持 反对

使用道具 举报

0

主题

972

帖子

2750

积分

中级会员

Rank: 4

积分
2750
发表于 2019-6-13 06:23:27 | 显示全部楼层
为毛老子总也抢不到沙发?!!
回复 支持 反对

使用道具 举报

0

主题

983

帖子

2803

积分

4K家园VIP

Rank: 9Rank: 9Rank: 9

积分
2803
发表于 2019-6-13 08:37:19 | 显示全部楼层
LZ帖子不给力,勉强给回复下吧
回复 支持 反对

使用道具 举报

57

主题

1081

帖子

3065

积分

4K家园VIP

Rank: 9Rank: 9Rank: 9

积分
3065
发表于 2019-6-13 20:41:24 来自手机 | 显示全部楼层
没人回帖。。。我来个吧
回复 支持 反对

使用道具 举报

47

主题

1065

帖子

3021

积分

4K家园VIP

Rank: 9Rank: 9Rank: 9

积分
3021
发表于 2019-6-14 08:28:07 | 显示全部楼层
向楼主学习
回复 支持 反对

使用道具 举报

0

主题

2

帖子

23

积分

新手上路

Rank: 1

积分
23
发表于 2019-6-18 19:53:25 | 显示全部楼层
感谢楼主分享,我默默顶一下,楼主再接再厉!
回复 支持 反对

使用道具 举报

0

主题

3

帖子

22

积分

新手上路

Rank: 1

积分
22
发表于 2019-6-20 11:45:11 | 显示全部楼层

感谢楼主分享,我默默顶一下,楼主再接再厉!
回复 支持 反对

使用道具 举报

0

主题

834

帖子

3527

积分

中级会员

Rank: 4

积分
3527
发表于 2019-7-6 00:16:19 | 显示全部楼层

感谢楼主分享,我默默顶一下,楼主再接再厉!
回复 支持 反对

使用道具 举报

您需要登录后才可以回帖 登录 | 立即注册

本版积分规则

精彩图文
关闭

站长推荐上一条 /1 下一条

4k家园   ©2019