[韩国4KMV] EVERGLOW- (Bon Bon Chocolat) [2160P/MKV/396MB]

[复制链接]

394

主题

439

帖子

2867

积分

超级版主

Rank: 8Rank: 8

积分
2867
 楼主| 发表于 6 天前 | 显示全部楼层 |阅读模式

EVERGLOW- (Bon Bon Chocolat)[4K].mkv_20190609_205714.616.jpg EVERGLOW- (Bon Bon Chocolat)[4K].mkv_20190609_205736.011.jpg EVERGLOW- (Bon Bon Chocolat)[4K].mkv_20190609_205747.913.jpg EVERGLOW- (Bon Bon Chocolat)[4K].mkv_20190609_205753.353.jpg EVERGLOW- (Bon Bon Chocolat)[4K].mkv_20190609_205808.425.jpg

General
Unique ID                      : 302253097196953734718060236171724449070 (0xE363D43DC532009C526C7C70A47BE52E)
Complete name                  : admin\Desktop\EVERGLOW-  (Bon Bon Chocolat)[4K].mkv
Format                         : Matroska
Format version                 : Version 4
File size                      : 397 MiB
Duration                       : 3 min 48 s
Overall bit rate mode          : Variable
Overall bit rate               : 14.6 Mb/s
Writing application            : Lavf56.40.101
Writing library                : Lavf56.40.101

Video
ID                             : 1
Format                         : VP9
Codec ID                       : V_VP9
Duration                       : 3 min 48 s
Bit rate                       : 14.2 Mb/s
Width                          : 3 840 pixels
Height                         : 2 160 pixels
Display aspect ratio           : 16:9
Frame rate mode                : Variable
Stream size                    : 385 MiB (97%)
Default                        : Yes
Forced                         : No

Audio
ID                             : 2
Format                         : Vorbis
Format settings, Floor         : 1
Codec ID                       : A_VORBIS
Duration                       : 3 min 48 s
Bit rate mode                  : Variable
Bit rate                       : 128 kb/s
Channel(s)                     : 2 channels
Sampling rate                  : 44.1 kHz
Compression mode               : Lossy
Stream size                    : 3.49 MiB (1%)
Writing application            : Google
Default                        : Yes
Forced                         : No



网盘下载失效不补:链接: https://pan.baidu.com/s/1xgWeFc-4YE6hGT1i4ihRQA
****此区域为收费内容****    需支付 25 金币后可查看立即购买





.

上一篇:[2019汉城汽车展]Pocket Girls-Lip & Hip 60fps [2160P/MP4/419MB]
下一篇:[韩国4KMV]红色天鹅绒-哑巴 EVC-60fps-10bit [2160P/TS/830MB]
回复

使用道具 举报

38

主题

1064

帖子

2994

积分

4K家园VIP

Rank: 9Rank: 9Rank: 9

积分
2994
发表于 6 天前 | 显示全部楼层
前排,哇咔咔
回复 支持 反对

使用道具 举报

0

主题

455

帖子

1922

积分

中级会员

Rank: 4

积分
1922
发表于 5 天前 | 显示全部楼层

感谢楼主分享,我默默顶一下,楼主再接再厉!
回复 支持 反对

使用道具 举报

0

主题

927

帖子

2615

积分

中级会员

Rank: 4

积分
2615
发表于 3 天前 | 显示全部楼层
为毛老子总也抢不到沙发?!!
回复 支持 反对

使用道具 举报

0

主题

938

帖子

2668

积分

4K家园VIP

Rank: 9Rank: 9Rank: 9

积分
2668
发表于 3 天前 | 显示全部楼层
LZ帖子不给力,勉强给回复下吧
回复 支持 反对

使用道具 举报

50

主题

1047

帖子

2947

积分

4K家园VIP

Rank: 9Rank: 9Rank: 9

积分
2947
发表于 3 天前 来自手机 | 显示全部楼层
没人回帖。。。我来个吧
回复 支持 反对

使用道具 举报

38

主题

1014

帖子

2850

积分

4K家园VIP

Rank: 9Rank: 9Rank: 9

积分
2850
发表于 前天 08:28 | 显示全部楼层
向楼主学习
回复 支持 反对

使用道具 举报

您需要登录后才可以回帖 登录 | 立即注册

本版积分规则

精彩图文
关闭

站长推荐上一条 /2 下一条

4k家园   ©2019