[4K演示视频] 4K超高清延时-新加坡三天 [2160P/MP4/243MB]

[复制链接]

394

主题

439

帖子

2867

积分

超级版主

Rank: 8Rank: 8

积分
2867
 楼主| 发表于 6 天前 | 显示全部楼层 |阅读模式

新加坡三日Three Days In Singapore- 4K Ultra HD Time-Lapse.mp4_20190609_211012.766.jpg 新加坡三日Three Days In Singapore- 4K Ultra HD Time-Lapse.mp4_20190609_211019.334.jpg 新加坡三日Three Days In Singapore- 4K Ultra HD Time-Lapse.mp4_20190609_211025.542.jpg 新加坡三日Three Days In Singapore- 4K Ultra HD Time-Lapse.mp4_20190609_211030.405.jpg 新加坡三日Three Days In Singapore- 4K Ultra HD Time-Lapse.mp4_20190609_211040.989.jpg

General
Complete name                  :4K超高清延时-新加坡三天.MP4
Format                         : MPEG-4
Format profile                 : Base Media
Codec ID                       : isom (isom/iso2/avc1/mp41)
File size                      : 243 MiB
Duration                       : 1 min 51 s
Overall bit rate               : 18.3 Mb/s
Writing application            : Lavf54.29.104

Video
ID                             : 1
Format                         : AVC
Format/Info                    : Advanced Video Codec
Format profile                 : [email protected]
Format settings                : 2 Ref Frames
Format settings, CABAC         : No
Format settings, ReFrames      : 2 frames
Codec ID                       : avc1
Codec ID/Info                  : Advanced Video Coding
Duration                       : 1 min 51 s
Bit rate                       : 18.2 Mb/s
Width                          : 4 096 pixels
Height                         : 2 304 pixels
Display aspect ratio           : 16:9
Frame rate mode                : Constant
Frame rate                     : 24.000 FPS
Color space                    : YUV
Chroma subsampling             : 4:2:0
Bit depth                      : 8 bits
Scan type                      : Progressive
Bits/(Pixel*Frame)             : 0.080
Stream size                    : 242 MiB (99%)
Codec configuration box        : avcC

Audio
ID                             : 2
Format                         : AAC LC
Format/Info                    : Advanced Audio Codec Low Complexity
Codec ID                       : mp4a-40-2
Duration                       : 1 min 51 s
Bit rate mode                  : Constant
Bit rate                       : 126 kb/s
Channel(s)                     : 2 channels
Channel layout                 : L R
Sampling rate                  : 44.1 kHz
Frame rate                     : 43.066 FPS (1024 SPF)
Compression mode               : Lossy
Stream size                    : 1.67 MiB (1%)
Default                        : Yes
Alternate group                : 1



网盘下载失效不补:链接: https://pan.baidu.com/s/15_zqxA1Eyot0gstVDSUUjA
****此区域为收费内容****    需支付 25 金币后可查看立即购买





.


上一篇:2019美女模特韩国车展13[2160P/MP4/249MB]
下一篇:[4K 索尼演示片] 4K中的冰泡 [2160P/MP4/141MB]
回复

使用道具 举报

0

主题

887

帖子

2477

积分

4K家园VIP

Rank: 9Rank: 9Rank: 9

积分
2477
发表于 6 天前 来自手机 | 显示全部楼层
确实不错,顶先
回复 支持 反对

使用道具 举报

0

主题

805

帖子

2429

积分

4K家园VIP

Rank: 9Rank: 9Rank: 9

积分
2429
发表于 6 天前 | 显示全部楼层
感谢楼主的分享,还是阔以滴
回复 支持 反对

使用道具 举报

0

主题

942

帖子

2666

积分

4K家园VIP

Rank: 9Rank: 9Rank: 9

积分
2666
发表于 6 天前 来自手机 | 显示全部楼层
支持,楼下的跟上哈~
回复 支持 反对

使用道具 举报

0

主题

888

帖子

2676

积分

4K家园VIP

Rank: 9Rank: 9Rank: 9

积分
2676
发表于 6 天前 | 显示全部楼层
是爷们的娘们的都帮顶!大力支持
回复 支持 反对

使用道具 举报

0

主题

889

帖子

2679

积分

4K家园VIP

Rank: 9Rank: 9Rank: 9

积分
2679
发表于 5 天前 | 显示全部楼层
怎么这么大,希望我电视能看啊
回复 支持 反对

使用道具 举报

0

主题

178

帖子

1110

积分

中级会员

Rank: 4

积分
1110
发表于 前天 11:58 | 显示全部楼层

支持一下楼主,顶起来
回复 支持 反对

使用道具 举报

您需要登录后才可以回帖 登录 | 立即注册

本版积分规则

精彩图文
关闭

站长推荐上一条 /2 下一条

4k家园   ©2019