[4K演示视频] [4K 索尼演示片] 4K中的冰泡 [2160P/MP4/141MB]

[复制链接]

394

主题

439

帖子

2867

积分

超级版主

Rank: 8Rank: 8

积分
2867
 楼主| 发表于 5 天前 | 显示全部楼层 |阅读模式

[4K 索尼演示片] 4K中的冰泡.mp4_20190609_211637.349.jpg [4K 索尼演示片] 4K中的冰泡.mp4_20190609_211651.851.jpg [4K 索尼演示片] 4K中的冰泡.mp4_20190609_211813.608.jpg [4K 索尼演示片] 4K中的冰泡.mp4_20190609_211719.239.jpg


General
Complete name                  : [4K 索尼演示片] 4K中的冰泡.mp4
Format                         : MPEG-4
Format profile                 : Base Media
Codec ID                       : isom (isom/iso2/avc1/mp41)
File size                      : 141 MiB
Duration                       : 1 min 0 s
Overall bit rate               : 19.7 Mb/s
Writing application            : Lavf54.29.104

Video
ID                             : 1
Format                         : AVC
Format/Info                    : Advanced Video Codec
Format profile                 : [email protected]
Format settings                : 2 Ref Frames
Format settings, CABAC         : No
Format settings, ReFrames      : 2 frames
Codec ID                       : avc1
Codec ID/Info                  : Advanced Video Coding
Duration                       : 1 min 0 s
Bit rate                       : 19.6 Mb/s
Width                          : 3 840 pixels
Height                         : 2 160 pixels
Display aspect ratio           : 16:9
Frame rate mode                : Constant
Frame rate                     : 24.000 FPS
Color space                    : YUV
Chroma subsampling             : 4:2:0
Bit depth                      : 8 bits
Scan type                      : Progressive
Bits/(Pixel*Frame)             : 0.099
Stream size                    : 140 MiB (99%)
Codec configuration box        : avcC

Audio
ID                             : 2
Format                         : AAC LC
Format/Info                    : Advanced Audio Codec Low Complexity
Codec ID                       : mp4a-40-2
Duration                       : 1 min 0 s
Bit rate mode                  : Constant
Bit rate                       : 126 kb/s
Channel(s)                     : 2 channels
Channel layout                 : L R
Sampling rate                  : 44.1 kHz
Frame rate                     : 43.066 FPS (1024 SPF)
Compression mode               : Lossy
Stream size                    : 921 KiB (1%)
Default                        : Yes
Alternate group                : 1



网盘下载失效不补:链接: https://pan.baidu.com/s/1dO2fmlH41GnY7PmyasjIlg
****此区域为收费内容****    需支付 25 金币后可查看立即购买




.

上一篇:4K超高清延时-新加坡三天 [2160P/MP4/243MB]
下一篇:2019罗丝美睡衣嫩模走秀现场1[2160P/MP4/341MB]
回复

使用道具 举报

0

主题

884

帖子

2666

积分

4K家园VIP

Rank: 9Rank: 9Rank: 9

积分
2666
发表于 5 天前 来自手机 | 显示全部楼层
占坑编辑ing
回复 支持 反对

使用道具 举报

0

主题

889

帖子

2679

积分

4K家园VIP

Rank: 9Rank: 9Rank: 9

积分
2679
发表于 4 天前 | 显示全部楼层
广告位,,坐下看看
回复 支持 反对

使用道具 举报

0

主题

1172

帖子

3130

积分

高级会员

Rank: 3Rank: 3

积分
3130
发表于 3 天前 | 显示全部楼层
啊啊啊啊啊啊啊啊啊啊啊
回复 支持 反对

使用道具 举报

0

主题

178

帖子

1110

积分

中级会员

Rank: 4

积分
1110
发表于 前天 11:58 | 显示全部楼层

支持一下楼主,顶起来
回复 支持 反对

使用道具 举报

0

主题

5

帖子

40

积分

新手上路

Rank: 1

积分
40
发表于 前天 19:48 | 显示全部楼层

其实我一直觉得楼主的品味不错!呵呵!4K家园真是太棒了!
回复 支持 反对

使用道具 举报

51

主题

1088

帖子

3100

积分

4K家园VIP

Rank: 9Rank: 9Rank: 9

积分
3100
发表于 昨天 00:09 | 显示全部楼层
前排支持下了哦~
回复 支持 反对

使用道具 举报

0

主题

774

帖子

2336

积分

4K家园VIP

Rank: 9Rank: 9Rank: 9

积分
2336
发表于 昨天 05:49 | 显示全部楼层
我也顶起出售广告位
回复 支持 反对

使用道具 举报

您需要登录后才可以回帖 登录 | 立即注册

本版积分规则

精彩图文
关闭

站长推荐上一条 /2 下一条

4k家园   ©2019