地下孩童/Children of the Underground(2022)第一季全/4K高清版本下载

[复制链接]

205

主题

228

帖子

2261

积分

版主

Rank: 7Rank: 7Rank: 7

积分
2261
 楼主| 发表于 2022-8-14 12:30:23 | 显示全部楼层 |阅读模式
p2876496689_副本.jpg

◎译  名 地下孩童
◎片  名 For All Mankind Season 1
◎年  代 2019
◎产  地 美国
◎类  别 纪录片
◎语  言 英语
◎上映日期 2022-08-12(美国)
◎IMDb评分 7.7/10 from 16 users 更新时间 : 2022-08-14
◎IMDb链接 https://www.imdb.com/title/tt20852952/
◎豆瓣评分 0/10 from 0 users
◎豆瓣链接 https://movie.douban.com/subject/35922035/
◎集  数 5
◎片  长 ?分钟


◎简  介

        该系列跟随Faye Yager,他建立了一个巨大的地下网络,隐藏了数百名母亲和孩子,在一个破碎的法院系统无法避免的情况下,将他们从所谓的丈夫和父亲虐待中拯救出来。

Video
ID : 1
Format : HEVC
Format/Info : High Efficiency Video Coding
Format profile : Main 10@L5.1@Main
Codec ID : V_MPEGH/ISO/HEVC
Duration : 52 min 33 s
Bit rate : 14.1 Mb/s
Width : 3 840 pixels
Height : 2 160 pixels
Display aspect ratio : 16:9
Frame rate mode : Constant
Frame rate : 23.976 (24000/1001) FPS
Color space : YUV
Chroma subsampling : 4:2:0
Bit depth : 10 bits
Bits/(Pixel*Frame) : 0.071
Stream size : 5.18 GiB (96%)
Default : Yes
Forced : No

Audio
ID : 2
Format : E-AC-3
Format/Info : Enhanced AC-3
Commercial name : Dolby Digital Plus
Codec ID : A_EAC3
Duration : 52 min 33 s
Bit rate mode : Constant
Bit rate : 256 kb/s
Channel(s) : 6 channels
Channel layout : L R C LFE Ls Rs
Sampling rate : 48.0 kHz
Frame rate : 31.250 FPS (1536 SPF)
Compression mode : Lossy
Stream size : 96.2 MiB (2%)
Language : English
Service kind : Complete Main
Default : Yes
Forced : No

Text
ID : 3
Format : UTF-8
Codec ID : S_TEXT/UTF8
Codec ID/Info : UTF-8 Plain Text
Title : English [SDH]
Language : English
Default : No
Forced : No

下载地址:

游客,如果您要查看本帖隐藏内容请回复






上一篇:宇宙之爱 [简繁中字] Cosmic Love (2022) 第一季全/4K高清版本下载
下一篇:弗拉特布什轻罪 (2022) 第一季全/4K高清版本下载
回复

使用道具 举报

2

主题

1348

帖子

3858

积分

4K家园VIP

Rank: 9Rank: 9Rank: 9

积分
3858
发表于 2022-8-14 12:30:52 | 显示全部楼层
呵呵。。。
回复 支持 反对

使用道具 举报

0

主题

5

帖子

27

积分

新手上路

Rank: 1

积分
27
发表于 2022-8-14 16:35:50 | 显示全部楼层
好动西,大家一起分享啊
回复 支持 反对

使用道具 举报

2

主题

264

帖子

3278

积分

中级会员

Rank: 4

积分
3278
发表于 2022-8-15 08:24:36 | 显示全部楼层
感谢分享           
回复 支持 反对

使用道具 举报

2

主题

1409

帖子

4077

积分

4K家园VIP

Rank: 9Rank: 9Rank: 9

积分
4077
发表于 2022-8-15 15:50:55 | 显示全部楼层
为保住菊花,这个一定得回复!
回复 支持 反对

使用道具 举报

1

主题

1382

帖子

4164

积分

4K家园VIP

Rank: 9Rank: 9Rank: 9

积分
4164
发表于 2022-8-18 19:29:01 来自手机 | 显示全部楼层
佩服佩服!
回复 支持 反对

使用道具 举报

6

主题

1236

帖子

3734

积分

4K家园VIP

Rank: 9Rank: 9Rank: 9

积分
3734
发表于 2022-8-21 01:25:18 | 显示全部楼层
支持楼主,用户楼主,楼主英明呀!!!
回复 支持 反对

使用道具 举报

3

主题

1632

帖子

4538

积分

4K家园VIP

Rank: 9Rank: 9Rank: 9

积分
4538
发表于 2022-8-27 02:33:27 | 显示全部楼层
鼎力支持!!
回复 支持 反对

使用道具 举报

您需要登录后才可以回帖 登录 | 立即注册

本版积分规则

精彩图文
Archiver|手机版|TAG|Sitemap|新帖|专题|联系我们:邮箱: 4kjia.com@gmail.com   

4k家园   ©2019