[4K美女视频] 韩国比基尼健美比赛现场实拍115[2160P/MP4/440MB]

[复制链接]

394

主题

439

帖子

2867

积分

超级版主

Rank: 8Rank: 8

积分
2867
 楼主| 发表于 4 天前 | 显示全部楼层 |阅读模式

韩国比基尼健美比赛现场实拍115.mp4_20190611_205954.670.jpg 韩国比基尼健美比赛现场实拍115.mp4_20190611_210024.160.jpg 韩国比基尼健美比赛现场实拍115.mp4_20190611_210029.931.jpg 韩国比基尼健美比赛现场实拍115.mp4_20190611_210100.079.jpg

General
Complete name                  : 4K视频\韩国比基尼健美比赛现场实拍115.mp4
Format                         : MPEG-4
Format profile                 : Base Media
Codec ID                       : isom (isom/iso2/avc1/mp41)
File size                      : 441 MiB
Duration                       : 3 min 45 s
Overall bit rate               : 16.4 Mb/s
Writing application            : Lavf58.12.100

Video
ID                             : 1
Format                         : AVC
Format/Info                    : Advanced Video Codec
Format profile                 : [email protected]
Format settings                : CABAC / 4 Ref Frames
Format settings, CABAC         : Yes
Format settings, ReFrames      : 4 frames
Codec ID                       : avc1
Codec ID/Info                  : Advanced Video Coding
Duration                       : 3 min 45 s
Bit rate                       : 16.0 Mb/s
Width                          : 3 840 pixels
Height                         : 2 160 pixels
Display aspect ratio           : 16:9
Frame rate mode                : Constant
Frame rate                     : 29.000 FPS
Color space                    : YUV
Chroma subsampling             : 4:2:0
Bit depth                      : 8 bits
Scan type                      : Progressive
Bits/(Pixel*Frame)             : 0.067
Stream size                    : 437 MiB (99%)
Writing library                : x264 core 148
Encoding settings              : cabac=1 / ref=3 / deblock=1:0:0 / analyse=0x3:0x113 / me=hex / subme=7 / psy=1 / psy_rd=1.00:0.00 / mixed_ref=1 / me_range=16 / chroma_me=1 / trellis=1 / 8x8dct=1 / cqm=0 / deadzone=21,11 / fast_pskip=1 / chroma_qp_offset=-2 / threads=6 / lookahead_threads=1 / sliced_threads=0 / nr=0 / decimate=1 / interlaced=0 / bluray_compat=0 / constrained_intra=0 / bframes=3 / b_pyramid=2 / b_adapt=1 / b_bias=0 / direct=1 / weightb=1 / open_gop=0 / weightp=2 / keyint=250 / keyint_min=25 / scenecut=40 / intra_refresh=0 / rc_lookahead=40 / rc=abr / mbtree=1 / bitrate=16000 / ratetol=1.0 / qcomp=0.60 / qpmin=0 / qpmax=69 / qpstep=4 / ip_ratio=1.40 / aq=1:1.00
Language                       : English
Codec configuration box        : avcC

Audio
ID                             : 2
Format                         : AAC LC
Format/Info                    : Advanced Audio Codec Low Complexity
Codec ID                       : mp4a-40-2
Duration                       : 3 min 45 s
Duration_LastFrame             : -1 ms
Bit rate mode                  : Constant
Bit rate                       : 129 kb/s
Channel(s)                     : 2 channels
Channel layout                 : L R
Sampling rate                  : 44.1 kHz
Frame rate                     : 43.066 FPS (1024 SPF)
Compression mode               : Lossy
Stream size                    : 3.45 MiB (1%)
Language                       : English
Default                        : Yes
Alternate group                : 1




网盘下载失效不补:链接: https://pan.baidu.com/s/1GbnRSKxjbQ399vy20uBWtg
****此区域为收费内容****    需支付 15 金币后可查看立即购买








.

上一篇:2019罗丝美睡衣嫩模走秀现场1[2160P/MP4/341MB]
下一篇:韩国比基尼健美比赛现场实拍118[2160P/MP4/443MB]
回复

使用道具 举报

0

主题

1166

帖子

3112

积分

4K家园VIP

Rank: 9Rank: 9Rank: 9

积分
3112
发表于 4 天前 | 显示全部楼层
前排支持下了哦~
回复 支持 反对

使用道具 举报

0

主题

240

帖子

1495

积分

4K家园VIP

Rank: 9Rank: 9Rank: 9

积分
1495
QQ
发表于 4 天前 | 显示全部楼层
强烈支持了!!
回复 支持 反对

使用道具 举报

0

主题

923

帖子

2783

积分

4K家园VIP

Rank: 9Rank: 9Rank: 9

积分
2783
发表于 3 天前 | 显示全部楼层
报告!别开枪,我就是路过来看看的。。。
回复 支持 反对

使用道具 举报

42

主题

1085

帖子

3055

积分

4K家园VIP

Rank: 9Rank: 9Rank: 9

积分
3055
发表于 前天 07:30 | 显示全部楼层
看起来好像不错的样子
回复 支持 反对

使用道具 举报

0

主题

4

帖子

28

积分

新手上路

Rank: 1

积分
28
发表于 前天 16:02 | 显示全部楼层

支持楼主,支持4K家园,顶一个!
回复 支持 反对

使用道具 举报

35

主题

1047

帖子

2963

积分

4K家园VIP

Rank: 9Rank: 9Rank: 9

积分
2963
发表于 昨天 23:43 | 显示全部楼层
站位支持
回复 支持 反对

使用道具 举报

48

主题

1106

帖子

3094

积分

4K家园VIP

Rank: 9Rank: 9Rank: 9

积分
3094
发表于 18 小时前 | 显示全部楼层
路过的帮顶
回复 支持 反对

使用道具 举报

您需要登录后才可以回帖 登录 | 立即注册

本版积分规则

精彩图文
关闭

站长推荐上一条 /2 下一条

4k家园   ©2019