[4K美女视频] 韩国比基尼健美比赛现场实拍118[2160P/MP4/443MB]

[复制链接]

1082

主题

1221

帖子

7687

积分

超级版主

Rank: 8Rank: 8

积分
7687
 楼主| 发表于 2019-6-13 11:29:05 | 显示全部楼层 |阅读模式

韩国比基尼健美比赛现场实拍118.mp4_20190611_210627.389.jpg 韩国比基尼健美比赛现场实拍118.mp4_20190611_210645.257.jpg 韩国比基尼健美比赛现场实拍118.mp4_20190611_210817.824.jpg 韩国比基尼健美比赛现场实拍118.mp4_20190611_210834.870.jpg

General
Complete name                  : 4K视频\韩国比基尼健美比赛现场实拍118.mp4
Format                         : MPEG-4
Format profile                 : Base Media
Codec ID                       : isom (isom/iso2/avc1/mp41)
File size                      : 443 MiB
Duration                       : 3 min 50 s
Overall bit rate               : 16.1 Mb/s
Writing application            : Lavf58.12.100

Video
ID                             : 1
Format                         : AVC
Format/Info                    : Advanced Video Codec
Format profile                 : [email protected]
Format settings                : CABAC / 4 Ref Frames
Format settings, CABAC         : Yes
Format settings, ReFrames      : 4 frames
Codec ID                       : avc1
Codec ID/Info                  : Advanced Video Coding
Duration                       : 3 min 50 s
Bit rate                       : 16.0 Mb/s
Width                          : 3 840 pixels
Height                         : 2 160 pixels
Display aspect ratio           : 16:9
Frame rate mode                : Constant
Frame rate                     : 29.000 FPS
Color space                    : YUV
Chroma subsampling             : 4:2:0
Bit depth                      : 8 bits
Scan type                      : Progressive
Bits/(Pixel*Frame)             : 0.067
Stream size                    : 440 MiB (99%)
Writing library                : x264 core 148
Encoding settings              : cabac=1 / ref=3 / deblock=1:0:0 / analyse=0x3:0x113 / me=hex / subme=7 / psy=1 / psy_rd=1.00:0.00 / mixed_ref=1 / me_range=16 / chroma_me=1 / trellis=1 / 8x8dct=1 / cqm=0 / deadzone=21,11 / fast_pskip=1 / chroma_qp_offset=-2 / threads=6 / lookahead_threads=1 / sliced_threads=0 / nr=0 / decimate=1 / interlaced=0 / bluray_compat=0 / constrained_intra=0 / bframes=3 / b_pyramid=2 / b_adapt=1 / b_bias=0 / direct=1 / weightb=1 / open_gop=0 / weightp=2 / keyint=250 / keyint_min=25 / scenecut=40 / intra_refresh=0 / rc_lookahead=40 / rc=abr / mbtree=1 / bitrate=16000 / ratetol=1.0 / qcomp=0.60 / qpmin=0 / qpmax=69 / qpstep=4 / ip_ratio=1.40 / aq=1:1.00
Language                       : English
Codec configuration box        : avcC

Audio
ID                             : 2
Format                         : AAC LC
Format/Info                    : Advanced Audio Codec Low Complexity
Codec ID                       : mp4a-40-2
Duration                       : 3 min 50 s
Duration_LastFrame             : -4 ms
Bit rate mode                  : Constant
Bit rate                       : 129 kb/s
Channel(s)                     : 2 channels
Channel layout                 : L R
Sampling rate                  : 44.1 kHz
Frame rate                     : 43.066 FPS (1024 SPF)
Compression mode               : Lossy
Stream size                    : 3.54 MiB (1%)
Language                       : English
Default                        : Yes
Alternate group                : 1




网盘下载失效不补:链接: https://pan.baidu.com/s/1CJ87V-C-tlR8t1lO4AIHHQ
****此区域为收费内容****    需支付 15 金币后可查看立即购买





.

上一篇:韩国比基尼健美比赛现场实拍115[2160P/MP4/440MB]
下一篇:2019美女模特韩国车展15[2160P/MP4/290MB]
回复

使用道具 举报

55

主题

1129

帖子

3215

积分

4K家园VIP

Rank: 9Rank: 9Rank: 9

积分
3215
发表于 2019-6-13 11:29:12 | 显示全部楼层
有4K版啦,下个看下
回复 支持 反对

使用道具 举报

0

主题

1253

帖子

3343

积分

高级会员

Rank: 3Rank: 3

积分
3343
发表于 2019-6-13 14:52:45 来自手机 | 显示全部楼层
我擦!我要沙发!
回复 支持 反对

使用道具 举报

0

主题

376

帖子

2669

积分

4K家园VIP

Rank: 9Rank: 9Rank: 9

积分
2669
QQ
发表于 2019-6-13 21:39:09 | 显示全部楼层
过来抢沙发了!!
回复 支持 反对

使用道具 举报

0

主题

944

帖子

2846

积分

4K家园VIP

Rank: 9Rank: 9Rank: 9

积分
2846
发表于 2019-6-14 13:07:59 | 显示全部楼层
多谢楼主分享
回复 支持 反对

使用道具 举报

0

主题

808

帖子

2438

积分

4K家园VIP

Rank: 9Rank: 9Rank: 9

积分
2438
发表于 2019-6-15 14:44:01 来自手机 | 显示全部楼层
看帖要回,回帖才健康,在踩踩,楼主辛苦了!
回复 支持 反对

使用道具 举报

0

主题

935

帖子

2808

积分

4K家园VIP

Rank: 9Rank: 9Rank: 9

积分
2808
发表于 2019-6-15 19:31:43 | 显示全部楼层
有空一起交流一下
回复 支持 反对

使用道具 举报

您需要登录后才可以回帖 登录 | 立即注册

本版积分规则

精彩图文
关闭

站长推荐上一条 /1 下一条

4k家园   ©2019