[4K美女视频] 2019美女模特韩国车展15[2160P/MP4/290MB]

[复制链接]

394

主题

439

帖子

2867

积分

超级版主

Rank: 8Rank: 8

积分
2867
 楼主| 发表于 5 天前 | 显示全部楼层 |阅读模式
2019美女模特韩国车展15.mp4_20190611_214522.161.jpg 2019美女模特韩国车展15.mp4_20190611_214533.339.jpg 2019美女模特韩国车展15.mp4_20190611_214550.803.jpg 2019美女模特韩国车展15.mp4_20190611_214558.634.jpg

General
Complete name                  : 2019美女模特韩国车展\2019美女模特韩国车展15.mp4
Format                         : MPEG-4
Format profile                 : Base Media
Codec ID                       : isom (isom/iso2/avc1/mp41)
File size                      : 290 MiB
Duration                       : 2 min 45 s
Overall bit rate               : 14.7 Mb/s
Writing application            : EX1.4.4(C1.0.9)

Video
ID                             : 1
Format                         : AVC
Format/Info                    : Advanced Video Codec
Format profile                 : [email protected]
Format settings                : CABAC / 3 Ref Frames
Format settings, CABAC         : Yes
Format settings, ReFrames      : 3 frames
Format settings, GOP           : M=3, N=60
Codec ID                       : avc1
Codec ID/Info                  : Advanced Video Coding
Duration                       : 2 min 45 s
Bit rate                       : 14.5 Mb/s
Width                          : 2 160 pixels
Height                         : 3 840 pixels
Display aspect ratio           : 0.563
Frame rate mode                : Constant
Frame rate                     : 29.970 (29970/1000) FPS
Color space                    : YUV
Chroma subsampling             : 4:2:0
Bit depth                      : 8 bits
Scan type                      : Progressive
Bits/(Pixel*Frame)             : 0.058
Stream size                    : 286 MiB (99%)
Codec configuration box        : avcC

Audio
ID                             : 2
Format                         : AAC LC
Format/Info                    : Advanced Audio Codec Low Complexity
Codec ID                       : mp4a-40-2
Duration                       : 2 min 45 s
Bit rate mode                  : Constant
Bit rate                       : 192 kb/s
Channel(s)                     : 2 channels
Channel layout                 : L R
Sampling rate                  : 48.0 kHz
Frame rate                     : 46.875 FPS (1024 SPF)
Compression mode               : Lossy
Stream size                    : 3.79 MiB (1%)
Default                        : Yes
Alternate group                : 1




网盘下载失效不补:链接: https://pan.baidu.com/s/1Xh9lEmvu-hfO9R-HHQ7Y7A
****此区域为收费内容****    需支付 15 金币后可查看立即购买






.

上一篇:韩国比基尼健美比赛现场实拍118[2160P/MP4/443MB]
下一篇:2019美女模特韩国车展14[2160P/MP4/235MB]
回复

使用道具 举报

42

主题

1022

帖子

2870

积分

4K家园VIP

Rank: 9Rank: 9Rank: 9

积分
2870
发表于 5 天前 | 显示全部楼层
锄禾日当午,发帖真辛苦。谁知坛中餐,帖帖皆辛苦!
回复 支持 反对

使用道具 举报

0

主题

455

帖子

1922

积分

中级会员

Rank: 4

积分
1922
发表于 4 天前 | 显示全部楼层
楼主发贴辛苦了,谢谢楼主分享!我觉得来4K家园是注册对了!
回复 支持 反对

使用道具 举报

0

主题

1072

帖子

3062

积分

4K家园VIP

Rank: 9Rank: 9Rank: 9

积分
3062
发表于 4 天前 | 显示全部楼层
看帖要回,回帖才健康,在踩踩,楼主辛苦了!
回复 支持 反对

使用道具 举报

35

主题

1053

帖子

2951

积分

4K家园VIP

Rank: 9Rank: 9Rank: 9

积分
2951
发表于 4 天前 | 显示全部楼层
差评
回复 支持 反对

使用道具 举报

0

主题

19

帖子

45

积分

新手上路

Rank: 1

积分
45
发表于 4 天前 | 显示全部楼层
发帖辛苦,买不起
回复 支持 反对

使用道具 举报

0

主题

731

帖子

2207

积分

4K家园VIP

Rank: 9Rank: 9Rank: 9

积分
2207
发表于 4 天前 | 显示全部楼层
看起来好像不错的样子
回复 支持 反对

使用道具 举报

186

主题

1223

帖子

3215

积分

4K家园VIP

Rank: 9Rank: 9Rank: 9

积分
3215
发表于 3 天前 | 显示全部楼层
围观 围观 沙发在哪里!!!
回复 支持 反对

使用道具 举报

您需要登录后才可以回帖 登录 | 立即注册

本版积分规则

精彩图文
关闭

站长推荐上一条 /2 下一条

4k家园   ©2019