[4K电影] 锋利的棍子 / Sharp Stick (2022) 4K高清版本下载

[复制链接]

2327

主题

2476

帖子

1万

积分

超级版主

Rank: 8Rank: 8

积分
17940
 楼主| 发表于 2022-8-16 17:40:23 | 显示全部楼层 |阅读模式
QQ图片20220816172944_副本.png

◎译  名 锋利的棍子
◎片  名 Sharp Stick
◎年  代 2022
◎产  地 美国
◎类  别 喜剧
◎语  言 英语
◎上映日期 2022-01-22(美国)
◎IMDb评分 4.0/10 from 363 users Updated : 2022-08-16
◎IMDb链接 https://www.imdb.com/title/tt14158346/
◎豆瓣评分 0/10 from 0 users
◎豆瓣链接 https://movie.douban.com/subject/35382214/
◎导  演 莉娜·邓纳姆 Lena Dunham
◎编  剧 莉娜·邓纳姆 Lena Dunham
◎主  演 詹妮弗·杰森·李 Jennifer Jason Leigh
       乔·博恩瑟 Jon Bernthal
       泰勒·佩姬 Taylour Paige
       斯科特·斯比德曼 Scott Speedman
       莉娜·邓纳姆 Lena Dunham
       克里斯汀·弗劳赛斯 Kristine Froseth


◎简  介


  莉娜·邓纳姆(《都市女孩》)执导、编剧的新片《锋利的棍子》(Sharp Stick)杀青,这是她11年来完成的首部电影长片。
  克里斯汀·弗劳赛斯(《寻找阿拉斯加》《助理》)、泰勒·佩吉(《掷地有声》《蓝调天后》)、詹妮弗·杰森·李、乔·博恩瑟、斯科特·斯比德曼(《黑夜传说》《野兽家族》)以及邓纳姆参演,围绕女性复杂的性意识展开,颠覆“可爱的”女性主角的概念。

Video
ID : 1
Format : HEVC
Format/Info : High Efficiency Video Coding
Format profile : Main 10@L5@High
Codec ID : V_MPEGH/ISO/HEVC
Duration : 1 h 36 min
Bit rate : 20.2 Mb/s
Width : 3 596 pixels
Height : 2 156 pixels
Display aspect ratio : 5:3
Frame rate mode : Constant
Frame rate : 23.976 FPS
Color space : YUV
Chroma subsampling : 4:2:0
Bit depth : 10 bits
Bits/(Pixel*Frame) : 0.109
Stream size : 13.6 GiB (98%)
Default : Yes
Forced : No
Color range : Limited
Color primaries : BT.709
Transfer characteristics : BT.709
Matrix coefficients : BT.709

Audio
ID : 2
Format : AC-3
Format/Info : Audio Coding 3
Commercial name : Dolby Digital
Codec ID : A_AC3
Duration : 1 h 36 min
Bit rate mode : Constant
Bit rate : 384 kb/s
Channel(s) : 6 channels
Channel layout : L R C LFE Ls Rs
Sampling rate : 48.0 kHz
Frame rate : 31.250 FPS (1536 SPF)
Compression mode : Lossy
Stream size : 264 MiB (2%)
Language : English
Service kind : Complete Main
Default : Yes
Forced : No

Text #1
ID : 3
Format : UTF-8
Codec ID : S_TEXT/UTF8
Codec ID/Info : UTF-8 Plain Text
Duration : 1 h 35 min
Bit rate : 80 b/s
Frame rate : 0.301 FPS
Count of elements : 1721
Stream size : 56.3 KiB (0%)
Language : English
Default : Yes
Forced : No

Text #2
ID : 4
Format : UTF-8
Codec ID : S_TEXT/UTF8
Codec ID/Info : UTF-8 Plain Text
Duration : 1 h 35 min
Bit rate : 86 b/s
Frame rate : 0.314 FPS
Count of elements : 1801
Stream size : 60.4 KiB (0%)
Title : SDH
Language : English
Default : No
Forced : No


资源速度为零或资源敏感被和谐时,推荐使用qBittorrent等下载软件,有条件的推荐115更好的下载软件!

下载地址:


游客,如果您要查看本帖隐藏内容请回复





上一篇:刀锋剑客 / Paws of Fury:The Legend of Hank (1994) 4K高清版本下载
下一篇:仇念 / Vengeance (2022) 4K高清版本下载
回复

使用道具 举报

2

主题

1684

帖子

4670

积分

4K家园VIP

Rank: 9Rank: 9Rank: 9

积分
4670
发表于 2022-8-16 17:40:27 | 显示全部楼层
好像还可以
回复 支持 反对

使用道具 举报

49

主题

1485

帖子

4281

积分

4K家园VIP

Rank: 9Rank: 9Rank: 9

积分
4281
发表于 2022-8-16 23:39:41 来自手机 | 显示全部楼层
4K家园不错,希望这种资源越多越好
回复 支持 反对

使用道具 举报

0

主题

1

帖子

6

积分

新手上路

Rank: 1

积分
6
发表于 2022-8-18 11:47:49 来自手机 | 显示全部楼层
能看到什么?
回复 支持 反对

使用道具 举报

48

主题

1547

帖子

4513

积分

4K家园VIP

Rank: 9Rank: 9Rank: 9

积分
4513
发表于 2022-8-20 16:19:21 来自手机 | 显示全部楼层
学习下
回复 支持 反对

使用道具 举报

0

主题

1

帖子

6

积分

新手上路

Rank: 1

积分
6
发表于 2022-8-29 15:12:47 | 显示全部楼层
支持
回复

使用道具 举报

1

主题

1650

帖子

4572

积分

4K家园VIP

Rank: 9Rank: 9Rank: 9

积分
4572
发表于 2022-9-1 01:25:27 | 显示全部楼层
专业抢沙发的!哈哈
回复 支持 反对

使用道具 举报

1

主题

1397

帖子

3997

积分

4K家园VIP

Rank: 9Rank: 9Rank: 9

积分
3997
发表于 2022-9-11 10:31:52 | 显示全部楼层
分享的不错,希望楼主继续分享
回复 支持 反对

使用道具 举报

0

主题

2

帖子

9

积分

新手上路

Rank: 1

积分
9
发表于 2022-9-11 15:37:30 来自手机 | 显示全部楼层
学习
回复

使用道具 举报

您需要登录后才可以回帖 登录 | 立即注册

本版积分规则

精彩图文
Archiver|手机版|TAG|Sitemap|新帖|专题|联系我们:邮箱: 4kjia.com@gmail.com   

4k家园   ©2019