[4K电影] 仇念 / Vengeance (2022) 4K高清版本下载

[复制链接]

2327

主题

2476

帖子

1万

积分

超级版主

Rank: 8Rank: 8

积分
17940
 楼主| 发表于 2022-8-16 18:07:23 | 显示全部楼层 |阅读模式
本帖最后由 最爱4K哟 于 2022-8-16 18:19 编辑

QQ图片20220816180547_副本.png
◎译  名 仇念
◎片  名 Vengeance
◎年  代 2022
◎产  地 美国
◎类  别 喜剧/悬疑/惊悚
◎语  言 英语
◎上映日期 2022-07-29(美国)
◎IMDb评分 7.3/10 from 2181 users 更新时间 : 2022-08-16
◎IMDb链接 https://www.imdb.com/title/tt11976532/
◎豆瓣评分 0/10 from 0 users
◎豆瓣链接 https://movie.douban.com/subject/35327825/
◎导  演 B·J·诺瓦克 B.J. Novak
◎编  剧 B·J·诺瓦克 B.J. Novak
◎主  演 B·J·诺瓦克 B.J. Novak
       波伊德·霍布鲁克 Boyd Holbrook
       德芙·卡梅隆 Dove Cameron
       伊萨·雷 Issa Rae
       阿什顿·库彻 Ashton Kutcher
       伊莎贝拉·阿玛拉 Isabella Amara
       吉恩·史密斯-卡梅隆 J. Smith-Cameron
       安娜丽·提普顿 Analeigh Tipton
       扎克·维拉 Zach Villa
       萨拉·明妮奇 Sarah Minnich
       伊莱·比克尔 Eli Bickel
       格雷森·贝里 Grayson Berry
       克林特·奥本钦 Clint Obenchain
       J·内森·西蒙斯 J. Nathan Simmons
       麦克·米勒 Mike Miller
       布朗文·默里 Bronwen Murray
       伊万·埃尔南德斯 Ivan Hernandez
       Ben Whitehair Ben Whitehair


◎简  介


  Ben Manalowitz(B·J·诺瓦克 饰演)是一名来自纽约的电台主持人。他一路南行,试图调查清楚围绕一个与自己有暧昧关系的女孩被谋杀的详情。

Video
ID : 1
Format : HEVC
Format/Info : High Efficiency Video Coding
Format profile : Main 10@L5@High
HDR format : SMPTE ST 2086, HDR10 compatible
Codec ID : V_MPEGH/ISO/HEVC
Duration : 1 h 48 min
Bit rate : 14.6 Mb/s
Width : 3 836 pixels
Height : 1 602 pixels
Display aspect ratio : 2.40:1
Frame rate mode : Constant
Frame rate : 23.976 FPS
Color space : YUV
Chroma subsampling : 4:2:0 (Type 2)
Bit depth : 10 bits
Bits/(Pixel*Frame) : 0.099
Stream size : 11.0 GiB (95%)
Default : Yes
Forced : No
Color range : Limited
Color primaries : BT.2020
Transfer characteristics : PQ
Matrix coefficients : BT.2020 non-constant
Mastering display color primaries : BT.2020
Mastering display luminance : min: 0.0050 cd/m2, max: 1000 cd/m2
Maximum Content Light Level : 7304 cd/m2
Maximum Frame-Average Light Level : 208 cd/m2

Audio
ID : 2
Format : E-AC-3 JOC
Format/Info : Enhanced AC-3 with Joint Object Coding
Commercial name : Dolby Digital Plus with Dolby Atmos
Codec ID : A_EAC3
Duration : 1 h 48 min
Bit rate mode : Constant
Bit rate : 768 kb/s
Channel(s) : 6 channels
Channel layout : L R C LFE Ls Rs
Sampling rate : 48.0 kHz
Frame rate : 31.250 FPS (1536 SPF)
Compression mode : Lossy
Stream size : 594 MiB (5%)
Language : English
Service kind : Complete Main
Default : Yes
Forced : No
Complexity index : 16
Number of dynamic objects : 15
Bed channel count : 1 channel
Bed channel configuration : LFE

Text #1
ID : 3
Format : UTF-8
Codec ID : S_TEXT/UTF8
Codec ID/Info : UTF-8 Plain Text
Duration : 1 h 41 min
Bit rate : 86 b/s
Frame rate : 0.355 FPS
Count of elements : 2161
Stream size : 64.2 KiB (0%)
Language : English
Default : Yes
Forced : No

Text #2
ID : 4
Format : UTF-8
Codec ID : S_TEXT/UTF8
Codec ID/Info : UTF-8 Plain Text
Duration : 1 h 47 min
Bit rate : 89 b/s
Frame rate : 0.367 FPS
Count of elements : 2364
Stream size : 70.5 KiB (0%)
Title : SDH
Language : English
Default : No
Forced : No

资源速度为零或资源敏感被和谐时,推荐使用qBittorrent等下载软件,有条件的推荐115更好的下载软件!

下载地址:


游客,如果您要查看本帖隐藏内容请回复

游客,如果您要查看本帖隐藏内容请回复

游客,如果您要查看本帖隐藏内容请回复

游客,如果您要查看本帖隐藏内容请回复





上一篇:锋利的棍子 / Sharp Stick (2022) 4K高清版本下载
下一篇:同床异客 / The Stranger in Our Bed (2021) 4K高清版本下载
回复

使用道具 举报

26

主题

1295

帖子

3899

积分

4K家园VIP

Rank: 9Rank: 9Rank: 9

积分
3899
发表于 2022-8-16 18:07:27 | 显示全部楼层
额.....这个可以有
回复 支持 反对

使用道具 举报

0

主题

1

帖子

6

积分

新手上路

Rank: 1

积分
6
发表于 2022-8-19 14:27:42 | 显示全部楼层

мертель шамотный огнеупорный купить

кирпич шамотный огнеупорный цена или кирпич огнеупорный шамотный ша

https://oskogneypor.ru/alumina-cement-cement
回复 支持 反对

使用道具 举报

1

主题

1522

帖子

4416

积分

4K家园VIP

Rank: 9Rank: 9Rank: 9

积分
4416
发表于 2022-8-25 13:36:59 | 显示全部楼层
4K应该不错,我也下个看看
回复 支持 反对

使用道具 举报

2

主题

1629

帖子

4487

积分

4K家园VIP

Rank: 9Rank: 9Rank: 9

积分
4487
发表于 2022-9-4 07:21:42 | 显示全部楼层
有空一起交流一下
回复 支持 反对

使用道具 举报

2

主题

1444

帖子

4170

积分

中级会员

Rank: 4

积分
4170
发表于 2022-9-11 15:50:46 | 显示全部楼层
求沙发
回复 支持 反对

使用道具 举报

1

主题

1618

帖子

4460

积分

4K家园VIP

Rank: 9Rank: 9Rank: 9

积分
4460
发表于 2022-9-23 21:00:52 | 显示全部楼层
感谢楼主的分享,还是阔以滴
回复 支持 反对

使用道具 举报

您需要登录后才可以回帖 登录 | 立即注册

本版积分规则

精彩图文
Archiver|手机版|TAG|Sitemap|新帖|专题|联系我们:邮箱: 4kjia.com@gmail.com   

4k家园   ©2019