[4K电影] 同床异客 / The Stranger in Our Bed (2021) 4K高清版本下载

[复制链接]

2327

主题

2476

帖子

1万

积分

超级版主

Rank: 8Rank: 8

积分
17940
 楼主| 发表于 2022-8-16 18:12:05 | 显示全部楼层 |阅读模式
QQ图片20220816175430_副本.png

◎译  名 同床异客/离开我的床/床上的陌生人
◎片  名 The Stranger in Our Bed
◎年  代 2021
◎产  地 英国
◎语  言 英语
◎IMDb评分 7.6/10 from 101 users Updated : 2022-08-16
◎IMDb链接 https://www.imdb.com/title/tt13661368/
◎豆瓣评分 0/10 from 0 users
◎豆瓣链接 https://movie.douban.com/subject/35657371/
◎片  长 85分钟
◎导  演 贾尔斯·阿尔德森 Giles Alderson
◎编  剧 Samantha Maloney Samantha Maloney
◎主  演 艾米丽·伯林顿 Emily Berrington
       本·劳埃德-休斯 Ben Lloyd-Hughes
       萨曼莎·邦德 Samantha Bond
       拜尔特·爱德华兹 Bart Edwards



◎简  介


  一个婚姻幸福的女人为了一个神秘失踪的情人离开了她的丈夫。

Video
ID : 1
Format : HEVC
Format/Info : High Efficiency Video Coding
Format profile : Main@L5@Main
Codec ID : V_MPEGH/ISO/HEVC
Duration : 1 h 29 min
Bit rate : 14.8 Mb/s
Width : 3 840 pixels
Height : 2 160 pixels
Display aspect ratio : 16:9
Frame rate mode : Constant
Frame rate : 23.976 (24000/1001) FPS
Color space : YUV
Chroma subsampling : 4:2:0
Bit depth : 8 bits
Bits/(Pixel*Frame) : 0.074
Stream size : 9.26 GiB (97%)
Writing library : x265 3.5hy:[Linux][GCC 7.5.0][64 bit] 8bit
Encoding settings : cpuid=1111039 / frame-threads=2 / wpp / no-pmode / no-pme / no-psnr / no-ssim / log-level=2 / input-csp=1 / input-res=3840x2160 / interlace=0 / total-frames=0 / level-idc=0 / high-tier=1 / uhd-bd=0 / ref=4 / no-allow-non-conformance / repeat-headers / annexb / aud / hrd / info / hash=0 / no-temporal-layers / no-open-gop / min-keyint=48 / keyint=48 / gop-lookahead=0 / bframes=4 / b-adapt=2 / b-pyramid / bframe-bias=0 / rc-lookahead=48 / lookahead-slices=4 / scenecut=0 / hist-scenecut=0 / radl=0 / no-splice / no-intra-refresh / ctu=64 / min-cu-size=8 / rect / no-amp / max-tu-size=32 / tu-inter-depth=1 / tu-intra-depth=1 / limit-tu=0 / rdoq-level=2 / dynamic-rd=0.00 / no-ssim-rd / signhide / no-tskip / nr-intra=100 / nr-inter=200 / no-constrained-intra / strong-intra-smoothing / max-merge=3 / limit-refs=3 / limit-modes / me=3 / subme=3 / merange=57 / temporal-mvp / no-frame-dup / no-hme / weightp / no-weightb / no-analyze-src-pics / deblock=0:0 / no-sao / no-sao-non-deblock / rd=4 / selective-sao=0 / no-early-skip / no-rskip / no-fast-intra / no-tskip-fast / no-cu-lossless / no-b-intra / no-splitrd-skip / rdpenalty=0 / psy-rd=0.00 / psy-rdoq=10.00 / no-rd-refine / no-lossless / cbqpoffs=0 / crqpoffs=0 / rc=abr / bitrate=15000 / qcomp=0.60 / qpstep=1 / stats-write=0 / stats-read=2 / cplxblur=20.0 / qblur=0.5 / vbv-maxrate=18000 / vbv-bufsize=12000 / vbv-init=0.6 / min-vbv-fullness=50.0 / max-vbv-fullness=80.0 / vbv-end=0.6 / vbv-end-fr-adj=0.0 / ipratio=1.10 / pbratio=1.00 / aq-mode=0 / aq-strength=0.00 / no-cutree / zone-count=0 / no-strict-cbr / qg-size=32 / rc-grain / qpmax=69 / qpmin=0 / const-vbv / sar=0 / overscan=0 / videoformat=5 / range=0 / colorprim=1 / transfer=1 / colormatrix=1 / chromaloc=0 / display-window=0 / cll=0,0 / min-luma=0 / max-luma=255 / log2-max-poc-lsb=8 / vui-timing-info / vui-hrd-info / no-concatenation / slices=1 / no-opt-qp-pps / no-opt-ref-list-length-pps / no-multi-pass-opt-rps / scenecut-bias=0.05 / hist-threshold=0.03 / no-opt-cu-delta-qp / no-aq-motion / no-hdr10 / no-hdr10-opt / no-dhdr10-opt / no-idr-recovery-sei / analysis-reuse-level=0 / analysis-save-reuse-level=0 / analysis-load-reuse-level=0 / scale-factor=0 / refine-intra=0 / refine-inter=0 / refine-mv=1 / refine-ctu-distortion=0 / no-limit-sao / ctu-info=0 / no-lowpass-dct / refine-analysis-type=0 / copy-pic=1 / max-ausize-factor=1.0 / no-dynamic-refine / no-single-sei / no-hevc-aq / no-svt / no-field / qp-adaptation-range=1.00 / scenecut-aware-qp=0conformance-window-offsets / right=0 / bottom=0 / decoder-max-rate=0 / no-vbv-live-multi-pass
Language : English
Default : Yes
Forced : No
Color range : Limited
Color primaries : BT.709
Transfer characteristics : BT.709
Matrix coefficients : BT.709

Audio
ID : 2
Format : AC-3
Format/Info : Audio Coding 3
Commercial name : Dolby Digital
Codec ID : A_AC3
Duration : 1 h 29 min
Bit rate mode : Constant
Bit rate : 384 kb/s
Channel(s) : 6 channels
Channel layout : L R C LFE Ls Rs
Sampling rate : 48.0 kHz
Frame rate : 31.250 FPS (1536 SPF)
Compression mode : Lossy
Stream size : 247 MiB (3%)
Title : English
Language : English
Service kind : Complete Main
Default : Yes
Forced : No

Text
ID : 3
Format : UTF-8
Codec ID : S_TEXT/UTF8
Codec ID/Info : UTF-8 Plain Text
Duration : 1 h 25 min
Bit rate : 49 b/s
Frame rate : 0.228 FPS
Count of elements : 1173
Stream size : 30.8 KiB (0%)
Title : English (SDH)
Language : English
Default : No
Forced : No


资源速度为零或资源敏感被和谐时,推荐使用qBittorrent等下载软件,有条件的推荐115更好的下载软件!

下载地址:


游客,如果您要查看本帖隐藏内容请回复





上一篇:仇念 / Vengeance (2022) 4K高清版本下载
下一篇:老板娘2无间潜行 [国语中字] (2022) 4K高清版本下载
回复

使用道具 举报

2

主题

1338

帖子

3864

积分

4K家园VIP

Rank: 9Rank: 9Rank: 9

积分
3864
发表于 2022-8-16 18:12:11 | 显示全部楼层
4K电影下个试试
回复 支持 反对

使用道具 举报

3

主题

1400

帖子

4224

积分

4K家园VIP

Rank: 9Rank: 9Rank: 9

积分
4224
发表于 2022-8-18 21:34:03 | 显示全部楼层
我也是坐沙发的
回复 支持 反对

使用道具 举报

4

主题

1366

帖子

4120

积分

4K家园VIP

Rank: 9Rank: 9Rank: 9

积分
4120
发表于 2022-9-22 18:05:39 | 显示全部楼层
4K家园资源不错,前排支持
回复 支持 反对

使用道具 举报

1

主题

1321

帖子

3979

积分

4K家园VIP

Rank: 9Rank: 9Rank: 9

积分
3979
发表于 2022-9-24 05:00:54 | 显示全部楼层
路过
回复 支持 反对

使用道具 举报

3

主题

1331

帖子

3799

积分

4K家园VIP

Rank: 9Rank: 9Rank: 9

积分
3799
发表于 2022-9-24 10:01:08 | 显示全部楼层
LZ敢整点更有创意的不?兄弟们等着围观捏~
回复 支持 反对

使用道具 举报

您需要登录后才可以回帖 登录 | 立即注册

本版积分规则

精彩图文
Archiver|手机版|TAG|Sitemap|新帖|专题|联系我们:邮箱: 4kjia.com@gmail.com   

4k家园   ©2019