[4K美女视频] 2019美女模特韩国车展14[2160P/MP4/235MB]

[复制链接]

1064

主题

1197

帖子

7491

积分

超级版主

Rank: 8Rank: 8

积分
7491
 楼主| 发表于 2019-6-13 20:45:34 | 显示全部楼层 |阅读模式

2019美女模特韩国车展14.mp4_20190611_214224.505.jpg 2019美女模特韩国车展14.mp4_20190611_214308.155.jpg 2019美女模特韩国车展14.mp4_20190611_214331.731.jpg 2019美女模特韩国车展14.mp4_20190611_214342.266.jpg

General
Complete name                  : 2019美女模特韩国车展\2019美女模特韩国车展14.mp4
Format                         : MPEG-4
Format profile                 : Base Media
Codec ID                       : isom (isom/iso2/avc1/mp41)
File size                      : 235 MiB
Duration                       : 3 min 25 s
Overall bit rate               : 9 594 kb/s
Writing application            : EX1.4.4(C1.0.9)

Video
ID                             : 1
Format                         : AVC
Format/Info                    : Advanced Video Codec
Format profile                 : [email protected]
Format settings                : CABAC / 3 Ref Frames
Format settings, CABAC         : Yes
Format settings, ReFrames      : 3 frames
Format settings, GOP           : M=3, N=60
Codec ID                       : avc1
Codec ID/Info                  : Advanced Video Coding
Duration                       : 3 min 25 s
Bit rate                       : 9 399 kb/s
Width                          : 2 160 pixels
Height                         : 3 840 pixels
Display aspect ratio           : 0.563
Frame rate mode                : Constant
Frame rate                     : 29.970 (29970/1000) FPS
Color space                    : YUV
Chroma subsampling             : 4:2:0
Bit depth                      : 8 bits
Scan type                      : Progressive
Bits/(Pixel*Frame)             : 0.038
Stream size                    : 231 MiB (98%)
Codec configuration box        : avcC

Audio
ID                             : 2
Format                         : AAC LC
Format/Info                    : Advanced Audio Codec Low Complexity
Codec ID                       : mp4a-40-2
Duration                       : 3 min 25 s
Bit rate mode                  : Constant
Bit rate                       : 192 kb/s
Channel(s)                     : 2 channels
Channel layout                 : L R
Sampling rate                  : 48.0 kHz
Frame rate                     : 46.875 FPS (1024 SPF)
Compression mode               : Lossy
Stream size                    : 4.71 MiB (2%)
Default                        : Yes
Alternate group                : 1





网盘下载失效不补:链接: https://pan.baidu.com/s/1KxhDTOzWyyt_LW8gp62QJg
****此区域为收费内容****    需支付 15 金币后可查看立即购买







.

上一篇:2019美女模特韩国车展15[2160P/MP4/290MB]
下一篇:韩国比基尼健美比赛现场实拍108[2160P/MP4/197MB]
回复

使用道具 举报

0

主题

906

帖子

2730

积分

4K家园VIP

Rank: 9Rank: 9Rank: 9

积分
2730
发表于 2019-6-13 20:45:43 | 显示全部楼层
楼下的接上
回复 支持 反对

使用道具 举报

0

主题

369

帖子

2618

积分

4K家园VIP

Rank: 9Rank: 9Rank: 9

积分
2618
QQ
发表于 2019-6-13 21:37:18 | 显示全部楼层
收藏欣赏了!!
回复 支持 反对

使用道具 举报

0

主题

945

帖子

2663

积分

4K家园VIP

Rank: 9Rank: 9Rank: 9

积分
2663
发表于 2019-6-13 23:14:44 | 显示全部楼层
体验下4K版的
回复 支持 反对

使用道具 举报

0

主题

896

帖子

2550

积分

4K家园VIP

Rank: 9Rank: 9Rank: 9

积分
2550
发表于 2019-6-14 08:55:29 来自手机 | 显示全部楼层
沙发位出租,
回复 支持 反对

使用道具 举报

0

主题

4

帖子

28

积分

新手上路

Rank: 1

积分
28
发表于 2019-6-14 16:02:34 | 显示全部楼层

感谢楼主分享,我默默顶一下,楼主再接再厉!
回复 支持 反对

使用道具 举报

0

主题

790

帖子

3360

积分

高级会员

Rank: 3Rank: 3

积分
3360
发表于 2019-6-15 01:28:10 | 显示全部楼层

感谢楼主分享,我默默顶一下,楼主再接再厉!
回复 支持 反对

使用道具 举报

0

主题

979

帖子

2801

积分

中级会员

Rank: 4

积分
2801
发表于 2019-6-15 22:55:12 | 显示全部楼层
very good
回复 支持 反对

使用道具 举报

0

主题

955

帖子

2681

积分

4K家园VIP

Rank: 9Rank: 9Rank: 9

积分
2681
发表于 2019-6-16 01:20:04 | 显示全部楼层
看起来不错
回复 支持 反对

使用道具 举报

您需要登录后才可以回帖 登录 | 立即注册

本版积分规则

精彩图文
关闭

站长推荐上一条 /1 下一条

4k家园   ©2019