[4K电影] 老板娘2无间潜行 [国语中字] (2022) 4K高清版本下载

[复制链接]

2327

主题

2476

帖子

1万

积分

超级版主

Rank: 8Rank: 8

积分
17940
 楼主| 发表于 2022-8-16 19:14:58 | 显示全部楼层 |阅读模式
本帖最后由 最爱4K哟 于 2022-8-17 10:42 编辑

QQ图片20220816190738_副本.png

◎标  题 老板娘2无间潜行
◎年  代 2022
◎产  地 中国大陆
◎类  别 剧情 / 犯罪
◎语  言 汉语普通话
◎上映日期 2022-08-11(中国大陆网络)
◎豆瓣评分 0/10 from 0 users
◎豆瓣链接 https://movie.douban.com/subject/36045039/
◎导  演 王晶 Jing Wong / 姜国民 Kwok-Man Keung
◎编  剧 王晶 Jing Wong
◎演  员 谢天华 Michael Tse
       徐冬冬 Dongdong Xu
       汤镇业 Ken Tong
       刘腾远 Tengyuan Liu
       桂晶晶 Jingjing Gui
       刘浩骏龙 Haojunlong Liu
       李宣 Xuan Li


◎简  介


  电影时代背景聚焦上世纪70年代的香港,讲述了正义的廉政公署人员白玫瑰(徐冬冬 饰),奉命潜伏到黑帮大佬雷万豪(谢天华 饰)身边收集罪证,在意外发现雷万豪的神秘身份后,白玫瑰仍旧坚守信念将两大涉黑团体悉数抓获的极限故事。
Video
ID                             : 1
Format                         : HEVC
Format/Info                    : High Efficiency Video Coding
Format profile                 : Main 10@L5@Main
HDR format                     : Dolby Vision, Version 1.0, dvhe.05.06, BL+RPU
Codec ID                       : dvhe
Codec ID/Info                  : High Efficiency Video Coding with Dolby Vision
Duration                       : 1 h 19 min
Bit rate                       : 23.7 Mb/s
Width                          : 3 840 pixels
Height                         : 1 640 pixels
Original height                : 1 634 pixels
Display aspect ratio           : 2.35:1
Frame rate mode                : Constant
Frame rate                     : 25.000 FPS
Color space                    : YUV
Chroma subsampling             : 4:2:0
Bit depth                      : 10 bits
Bits/(Pixel*Frame)             : 0.150
Stream size                    : 13.1 GiB (93%)
Default                        : Yes
Alternate group                : 1
Encoded date                   : UTC 2022-08-15 09:01:53
Tagged date                    : UTC 2022-08-15 09:01:53
Color range                    : Full
Codec configuration box        : hvcC+dvcC

Audio #1
ID                             : 2
Format                         : E-AC-3 JOC
Format/Info                    : Enhanced AC-3 with Joint Object Coding
Commercial name                : Dolby Digital Plus with Dolby Atmos
Codec ID                       : ac-3
Duration                       : 1 h 19 min
Bit rate mode                  : Constant
Bit rate                       : 448 kb/s
Channel(s)                     : 6 channels
Channel layout                 : L R C LFE Ls Rs
Sampling rate                  : 48.0 kHz
Frame rate                     : 31.250 FPS (1536 SPF)
Compression mode               : Lossy
Stream size                    : 254 MiB (2%)
Language                       : Chinese
Service kind                   : Complete Main
Default                        : Yes
Alternate group                : 2
Encoded date                   : UTC 2022-08-15 09:01:53
Tagged date                    : UTC 2022-08-15 09:01:53
Complexity index               : Not present / 16
Number of dynamic objects      : 15
Bed channel count              : 1 channel
Bed channel configuration      : LFE

Audio #2
ID                             : 3
Format                         : E-AC-3 JOC
Format/Info                    : Enhanced AC-3 with Joint Object Coding
Commercial name                : Dolby Digital Plus with Dolby Atmos
Codec ID                       : ac-3
Duration                       : 1 h 19 min
Bit rate mode                  : Constant
Bit rate                       : 448 kb/s
Channel(s)                     : 6 channels
Channel layout                 : L R C LFE Ls Rs
Sampling rate                  : 48.0 kHz
Frame rate                     : 31.250 FPS (1536 SPF)
Compression mode               : Lossy
Stream size                    : 254 MiB (2%)
Service kind                   : Complete Main
Default                        : No
Alternate group                : 2
Encoded date                   : UTC 2022-08-15 09:01:53
Tagged date                    : UTC 2022-08-15 09:01:53
Complexity index               : Not present / 16
Number of dynamic objects      : 15
Bed channel count              : 1 channel
Bed channel configuration      : LFE

Audio #3
ID                             : 4
Format                         : E-AC-3
Format/Info                    : Enhanced AC-3
Commercial name                : Dolby Digital Plus
Codec ID                       : ac-3
Duration                       : 1 h 19 min
Bit rate mode                  : Constant
Bit rate                       : 256 kb/s
Channel(s)                     : 2 channels
Channel layout                 : L R
Sampling rate                  : 48.0 kHz
Frame rate                     : 31.250 FPS (1536 SPF)
Compression mode               : Lossy
Stream size                    : 145 MiB (1%)
Language                       : Chinese
Service kind                   : Complete Main
Default                        : No
Alternate group                : 2
Encoded date                   : UTC 2022-08-15 09:01:53
Tagged date                    : UTC 2022-08-15 09:01:53

Audio #4
ID                             : 5
Format                         : E-AC-3
Format/Info                    : Enhanced AC-3
Commercial name                : Dolby Digital Plus
Codec ID                       : ac-3
Duration                       : 1 h 19 min
Bit rate mode                  : Constant
Bit rate                       : 256 kb/s
Channel(s)                     : 2 channels
Channel layout                 : L R
Sampling rate                  : 48.0 kHz
Frame rate                     : 31.250 FPS (1536 SPF)
Compression mode               : Lossy
Stream size                    : 145 MiB (1%)
Language                       : Chinese
Service kind                   : Complete Main
Default                        : No
Alternate group                : 2
Encoded date                   : UTC 2022-08-15 09:01:53
Tagged date                    : UTC 2022-08-15 09:01:53

Audio #5
ID                             : 6
Format                         : AAC LC
Format/Info                    : Advanced Audio Codec Low Complexity
Codec ID                       : mp4a-40-2
Duration                       : 1 h 19 min
Bit rate mode                  : Variable
Bit rate                       : 125 kb/s
Maximum bit rate               : 132 kb/s
Channel(s)                     : 2 channels
Channel layout                 : L R
Sampling rate                  : 48.0 kHz
Frame rate                     : 46.875 FPS (1024 SPF)
Compression mode               : Lossy
Stream size                    : 71.1 MiB (0%)
Language                       : Chinese
Default                        : No
Alternate group                : 2
Encoded date                   : UTC 2022-08-15 09:01:53
Tagged date                    : UTC 2022-08-15 09:01:53

Audio #6
ID                             : 7
Format                         : AAC LC
Format/Info                    : Advanced Audio Codec Low Complexity
Codec ID                       : mp4a-40-2
Duration                       : 1 h 19 min
Bit rate mode                  : Variable
Bit rate                       : 125 kb/s
Maximum bit rate               : 132 kb/s
Channel(s)                     : 2 channels
Channel layout                 : L R
Sampling rate                  : 48.0 kHz
Frame rate                     : 46.875 FPS (1024 SPF)
Compression mode               : Lossy
Stream size                    : 71.1 MiB (0%)
Language                       : Chinese
Default                        : No
Alternate group                : 2
Encoded date                   : UTC 2022-08-15 09:01:53
Tagged date                    : UTC 2022-08-15 09:01:53

资源速度为零或资源敏感被和谐时,推荐使用qBittorrent等下载软件,有条件的推荐115更好的下载软件!

下载地址:

游客,如果您要查看本帖隐藏内容请回复




上一篇:同床异客 / The Stranger in Our Bed (2021) 4K高清版本下载
下一篇:沙姆谢拉 / Shamshera (2022) 4K高清版本下载
回复

使用道具 举报

0

主题

1576

帖子

4328

积分

4K家园VIP

Rank: 9Rank: 9Rank: 9

积分
4328
发表于 2022-8-16 19:15:06 来自手机 | 显示全部楼层
没明白
回复 支持 反对

使用道具 举报

0

主题

2

帖子

9

积分

新手上路

Rank: 1

积分
9
发表于 2022-8-16 20:18:55 | 显示全部楼层
451656
32
回复

使用道具 举报

0

主题

8663

帖子

2万

积分

4K家园VIP

Rank: 9Rank: 9Rank: 9

积分
20189
发表于 2022-8-16 20:53:15 | 显示全部楼层
老闆娘★無間潛行4k
回复 支持 反对

使用道具 举报

0

主题

1

帖子

10

积分

新手上路

Rank: 1

积分
10
发表于 2022-8-17 10:59:35 | 显示全部楼层
第一次进来
回复 支持 反对

使用道具 举报

0

主题

10

帖子

94

积分

新手上路

Rank: 1

积分
94
发表于 2022-8-17 11:02:15 | 显示全部楼层
谢谢
回复

使用道具 举报

0

主题

1182

帖子

3560

积分

4K家园VIP

Rank: 9Rank: 9Rank: 9

积分
3560
发表于 2022-8-17 19:58:42 来自手机 | 显示全部楼层
看起来不错
回复 支持 反对

使用道具 举报

0

主题

3

帖子

16

积分

新手上路

Rank: 1

积分
16
发表于 2022-8-17 22:22:54 | 显示全部楼层

感谢分享
回复

使用道具 举报

1

主题

1738

帖子

4824

积分

4K家园VIP

Rank: 9Rank: 9Rank: 9

积分
4824
发表于 2022-8-18 16:17:10 | 显示全部楼层
看帖要回,回帖才健康,在踩踩,楼主辛苦了!
回复 支持 反对

使用道具 举报

2

主题

1404

帖子

4236

积分

4K家园VIP

Rank: 9Rank: 9Rank: 9

积分
4236
发表于 2022-8-18 16:38:21 | 显示全部楼层
怎么这么大,希望我电视能看啊
回复 支持 反对

使用道具 举报

您需要登录后才可以回帖 登录 | 立即注册

本版积分规则

精彩图文
Archiver|手机版|TAG|Sitemap|新帖|专题|联系我们:邮箱: 4kjia.com@gmail.com   

4k家园   ©2019