[4K美女视频] Lady內衣走秀现场性感美模6 [2160P/MP4/165MB]

[复制链接]

442

主题

501

帖子

3215

积分

超级版主

Rank: 8Rank: 8

积分
3215
 楼主| 发表于 6 天前 | 显示全部楼层 |阅读模式

Lady內衣走秀现场性感美模6.mp4_20190613_201101.995.jpg Lady內衣走秀现场性感美模6.mp4_20190613_201116.793.jpg Lady內衣走秀现场性感美模6.mp4_20190613_201244.634.jpg Lady內衣走秀现场性感美模6.mp4_20190613_201309.081.jpg

General
Complete name                  : 4K视频\Lady內衣走秀现场性感美模6.mp4
Format                         : MPEG-4
Format profile                 : Base Media
Codec ID                       : isom (isom/iso2/avc1/mp41)
File size                      : 165 MiB
Duration                       : 1 min 45 s
Overall bit rate               : 13.1 Mb/s
Writing application            : Lavf58.12.100

Video
ID                             : 1
Format                         : AVC
Format/Info                    : Advanced Video Codec
Format profile                 : [email protected]
Format settings                : CABAC / 4 Ref Frames
Format settings, CABAC         : Yes
Format settings, ReFrames      : 4 frames
Codec ID                       : avc1
Codec ID/Info                  : Advanced Video Coding
Duration                       : 1 min 45 s
Bit rate                       : 13.0 Mb/s
Width                          : 3 836 pixels
Height                         : 1 852 pixels
Display aspect ratio           : 2.071
Frame rate mode                : Constant
Frame rate                     : 29.000 FPS
Color space                    : YUV
Chroma subsampling             : 4:2:0
Bit depth                      : 8 bits
Scan type                      : Progressive
Bits/(Pixel*Frame)             : 0.063
Stream size                    : 163 MiB (99%)
Writing library                : x264 core 148
Encoding settings              : cabac=1 / ref=3 / deblock=1:0:0 / analyse=0x3:0x113 / me=hex / subme=7 / psy=1 / psy_rd=1.00:0.00 / mixed_ref=1 / me_range=16 / chroma_me=1 / trellis=1 / 8x8dct=1 / cqm=0 / deadzone=21,11 / fast_pskip=1 / chroma_qp_offset=-2 / threads=6 / lookahead_threads=1 / sliced_threads=0 / nr=0 / decimate=1 / interlaced=0 / bluray_compat=0 / constrained_intra=0 / bframes=3 / b_pyramid=2 / b_adapt=1 / b_bias=0 / direct=1 / weightb=1 / open_gop=0 / weightp=2 / keyint=250 / keyint_min=25 / scenecut=40 / intra_refresh=0 / rc_lookahead=40 / rc=abr / mbtree=1 / bitrate=13000 / ratetol=1.0 / qcomp=0.60 / qpmin=0 / qpmax=69 / qpstep=4 / ip_ratio=1.40 / aq=1:1.00
Language                       : English
Codec configuration box        : avcC

Audio
ID                             : 2
Format                         : AAC LC
Format/Info                    : Advanced Audio Codec Low Complexity
Codec ID                       : mp4a-40-2
Duration                       : 1 min 45 s
Bit rate mode                  : Constant
Bit rate                       : 129 kb/s
Channel(s)                     : 2 channels
Channel layout                 : L R
Sampling rate                  : 44.1 kHz
Frame rate                     : 43.066 FPS (1024 SPF)
Compression mode               : Lossy
Stream size                    : 1.62 MiB (1%)
Language                       : English
Default                        : Yes
Alternate group                : 1


网盘下载失效不补:链接: https://pan.baidu.com/s/19hKYVY0wBKLqPmyRhPdJ1Q 提取码: 7f28

s_18027172_1436852645569_c55.gif

上一篇:韩国比基尼健美比赛现场实拍108[2160P/MP4/197MB]
下一篇:韩国比基尼健美比赛现场实拍109 [2160P/MP4/276MB]
回复

使用道具 举报

0

主题

895

帖子

2527

积分

4K家园VIP

Rank: 9Rank: 9Rank: 9

积分
2527
发表于 6 天前 | 显示全部楼层
佩服佩服!
回复 支持 反对

使用道具 举报

0

主题

247

帖子

1564

积分

4K家园VIP

Rank: 9Rank: 9Rank: 9

积分
1564
QQ
发表于 6 天前 | 显示全部楼层
强烈支持了!!
回复 支持 反对

使用道具 举报

0

主题

481

帖子

2040

积分

中级会员

Rank: 4

积分
2040
发表于 5 天前 | 显示全部楼层

感谢楼主分享,我默默顶一下,楼主再接再厉!
回复 支持 反对

使用道具 举报

0

主题

14

帖子

91

积分

新手上路

Rank: 1

积分
91
发表于 5 天前 | 显示全部楼层
楼主发贴辛苦了,谢谢楼主分享!我觉得来4K家园是注册对了!
回复 支持 反对

使用道具 举报

0

主题

15

帖子

41

积分

新手上路

Rank: 1

积分
41
发表于 5 天前 | 显示全部楼层

支持楼主,支持4K家园,顶一个!
回复 支持 反对

使用道具 举报

34

主题

1052

帖子

2958

积分

4K家园VIP

Rank: 9Rank: 9Rank: 9

积分
2958
发表于 4 天前 | 显示全部楼层
还有没有别的资源,多分享些
回复 支持 反对

使用道具 举报

0

主题

1226

帖子

3280

积分

4K家园VIP

Rank: 9Rank: 9Rank: 9

积分
3280
发表于 4 天前 来自手机 | 显示全部楼层
珍爱生命,果断回帖。
回复 支持 反对

使用道具 举报

0

主题

1142

帖子

3026

积分

4K家园VIP

Rank: 9Rank: 9Rank: 9

积分
3026
发表于 4 天前 | 显示全部楼层
不错 支持下
回复 支持 反对

使用道具 举报

0

主题

720

帖子

2174

积分

4K家园VIP

Rank: 9Rank: 9Rank: 9

积分
2174
发表于 3 天前 | 显示全部楼层
试试看吧
回复 支持 反对

使用道具 举报

您需要登录后才可以回帖 登录 | 立即注册

本版积分规则

精彩图文
关闭

站长推荐上一条 /2 下一条

4k家园   ©2019