[4K美女视频] 韩国比基尼健美比赛现场实拍109 [2160P/MP4/276MB]

[复制链接]

1159

主题

1302

帖子

8512

积分

超级版主

Rank: 8Rank: 8

积分
8512
 楼主| 发表于 2019-6-13 20:45:47 | 显示全部楼层 |阅读模式

韩国比基尼健美比赛现场实拍109.mp4_20190613_201802.248.jpg 韩国比基尼健美比赛现场实拍109.mp4_20190613_201853.402.jpg 韩国比基尼健美比赛现场实拍109.mp4_20190613_201958.800.jpg 韩国比基尼健美比赛现场实拍109.mp4_20190613_202037.576.jpg

General
Complete name                  : 4K视频\韩国比基尼健美比赛现场实拍109.mp4
Format                         : MPEG-4
Format profile                 : Base Media
Codec ID                       : isom (isom/iso2/avc1/mp41)
File size                      : 276 MiB
Duration                       : 2 min 21 s
Overall bit rate               : 16.4 Mb/s
Writing application            : Lavf58.12.100

Video
ID                             : 1
Format                         : AVC
Format/Info                    : Advanced Video Codec
Format profile                 : High@L5.1
Format settings                : CABAC / 4 Ref Frames
Format settings, CABAC         : Yes
Format settings, ReFrames      : 4 frames
Codec ID                       : avc1
Codec ID/Info                  : Advanced Video Coding
Duration                       : 2 min 21 s
Bit rate                       : 16.0 Mb/s
Width                          : 3 840 pixels
Height                         : 2 160 pixels
Display aspect ratio           : 16:9
Frame rate mode                : Constant
Frame rate                     : 29.000 FPS
Color space                    : YUV
Chroma subsampling             : 4:2:0
Bit depth                      : 8 bits
Scan type                      : Progressive
Bits/(Pixel*Frame)             : 0.067
Stream size                    : 274 MiB (99%)
Writing library                : x264 core 148
Encoding settings              : cabac=1 / ref=3 / deblock=1:0:0 / analyse=0x3:0x113 / me=hex / subme=7 / psy=1 / psy_rd=1.00:0.00 / mixed_ref=1 / me_range=16 / chroma_me=1 / trellis=1 / 8x8dct=1 / cqm=0 / deadzone=21,11 / fast_pskip=1 / chroma_qp_offset=-2 / threads=6 / lookahead_threads=1 / sliced_threads=0 / nr=0 / decimate=1 / interlaced=0 / bluray_compat=0 / constrained_intra=0 / bframes=3 / b_pyramid=2 / b_adapt=1 / b_bias=0 / direct=1 / weightb=1 / open_gop=0 / weightp=2 / keyint=250 / keyint_min=25 / scenecut=40 / intra_refresh=0 / rc_lookahead=40 / rc=abr / mbtree=1 / bitrate=16000 / ratetol=1.0 / qcomp=0.60 / qpmin=0 / qpmax=69 / qpstep=4 / ip_ratio=1.40 / aq=1:1.00
Language                       : English
Codec configuration box        : avcC

Audio
ID                             : 2
Format                         : AAC LC
Format/Info                    : Advanced Audio Codec Low Complexity
Codec ID                       : mp4a-40-2
Duration                       : 2 min 21 s
Duration_LastFrame             : -15 ms
Bit rate mode                  : Constant
Bit rate                       : 129 kb/s
Channel(s)                     : 2 channels
Channel layout                 : L R
Sampling rate                  : 44.1 kHz
Frame rate                     : 43.066 FPS (1024 SPF)
Compression mode               : Lossy
Stream size                    : 2.17 MiB (1%)
Language                       : English
Default                        : Yes
Alternate group                : 1


网盘下载失效不补:链接: https://pan.baidu.com/s/1lKyad8HTIl-DP1RTUz41vQ
****此区域为收费内容****    需支付 15 金币后可查看立即购买


s_18027172_1436852645569_c55.gif
超模大赛狗狗红色比基尼拉票现场.mp4_20190613_202355.872_meitu_1.jpg

上一篇:Lady內衣走秀现场性感美模6 [2160P/MP4/165MB]
下一篇:超模大赛狗狗红色比基尼拉票现场 [2160P/MP4/232MB]
回复

使用道具 举报

0

主题

1295

帖子

3493

积分

4K家园VIP

Rank: 9Rank: 9Rank: 9

积分
3493
发表于 2019-6-13 20:46:21 | 显示全部楼层
4K版的应该更清晰吧
回复 支持 反对

使用道具 举报

0

主题

899

帖子

2711

积分

4K家园VIP

Rank: 9Rank: 9Rank: 9

积分
2711
发表于 2019-6-14 21:23:05 | 显示全部楼层
体验下4K版的
回复 支持 反对

使用道具 举报

0

主题

888

帖子

3781

积分

中级会员

Rank: 4

积分
3781
发表于 2019-6-15 01:27:46 | 显示全部楼层

感谢楼主分享,我默默顶一下,楼主再接再厉!
回复 支持 反对

使用道具 举报

0

主题

930

帖子

2806

积分

4K家园VIP

Rank: 9Rank: 9Rank: 9

积分
2806
发表于 2019-6-15 06:25:56 | 显示全部楼层
前排顶起
回复 支持 反对

使用道具 举报

0

主题

15

帖子

41

积分

新手上路

Rank: 1

积分
41
发表于 2019-6-15 12:12:19 | 显示全部楼层
楼主发贴辛苦了,谢谢楼主分享!我觉得来4K家园是注册对了!
回复 支持 反对

使用道具 举报

36

主题

1015

帖子

2865

积分

4K家园VIP

Rank: 9Rank: 9Rank: 9

积分
2865
发表于 2019-6-15 20:17:20 | 显示全部楼层
好帖必须得顶起
回复 支持 反对

使用道具 举报

0

主题

853

帖子

2539

积分

4K家园VIP

Rank: 9Rank: 9Rank: 9

积分
2539
发表于 2019-6-16 17:36:39 | 显示全部楼层
没看懂
回复 支持 反对

使用道具 举报

您需要登录后才可以回帖 登录 | 立即注册

本版积分规则

精彩图文
关闭

站长推荐上一条 /1 下一条

Archiver|手机版|TAG|Sitemap|新帖|专题|联系我们:邮箱: 4kjia.com@gmail.com   

4k家园   ©2019