[4K美女视频] 嘉义市市长盃全国健美锦标赛场外花絮 [2160P/MP4/362MB]

[复制链接]

1159

主题

1302

帖子

8512

积分

超级版主

Rank: 8Rank: 8

积分
8512
 楼主| 发表于 2019-6-14 21:23:53 | 显示全部楼层 |阅读模式

嘉义市市长盃全国健美锦标赛场外花絮.mp4_20190613_202728.288.jpg 嘉义市市长盃全国健美锦标赛场外花絮.mp4_20190613_202739.809.jpg 嘉义市市长盃全国健美锦标赛场外花絮.mp4_20190613_202749.312.jpg 嘉义市市长盃全国健美锦标赛场外花絮.mp4_20190613_202839.394.jpg

General
Complete name                  : 4K视频\嘉义市市长盃全国健美锦标赛场外花絮.mp4
Format                         : MPEG-4
Format profile                 : Base Media
Codec ID                       : isom (isom/iso2/avc1/mp41)
File size                      : 362 MiB
Duration                       : 3 min 5 s
Overall bit rate               : 16.4 Mb/s
Writing application            : Lavf58.12.100

Video
ID                             : 1
Format                         : AVC
Format/Info                    : Advanced Video Codec
Format profile                 : High@L5.1
Format settings                : CABAC / 4 Ref Frames
Format settings, CABAC         : Yes
Format settings, ReFrames      : 4 frames
Codec ID                       : avc1
Codec ID/Info                  : Advanced Video Coding
Duration                       : 3 min 5 s
Bit rate                       : 16.0 Mb/s
Width                          : 3 836 pixels
Height                         : 2 000 pixels
Display aspect ratio           : 1.918
Frame rate mode                : Constant
Frame rate                     : 29.000 FPS
Color space                    : YUV
Chroma subsampling             : 4:2:0
Bit depth                      : 8 bits
Scan type                      : Progressive
Bits/(Pixel*Frame)             : 0.072
Stream size                    : 359 MiB (99%)
Writing library                : x264 core 148
Encoding settings              : cabac=1 / ref=3 / deblock=1:0:0 / analyse=0x3:0x113 / me=hex / subme=7 / psy=1 / psy_rd=1.00:0.00 / mixed_ref=1 / me_range=16 / chroma_me=1 / trellis=1 / 8x8dct=1 / cqm=0 / deadzone=21,11 / fast_pskip=1 / chroma_qp_offset=-2 / threads=6 / lookahead_threads=1 / sliced_threads=0 / nr=0 / decimate=1 / interlaced=0 / bluray_compat=0 / constrained_intra=0 / bframes=3 / b_pyramid=2 / b_adapt=1 / b_bias=0 / direct=1 / weightb=1 / open_gop=0 / weightp=2 / keyint=250 / keyint_min=25 / scenecut=40 / intra_refresh=0 / rc_lookahead=40 / rc=abr / mbtree=1 / bitrate=16000 / ratetol=1.0 / qcomp=0.60 / qpmin=0 / qpmax=69 / qpstep=4 / ip_ratio=1.40 / aq=1:1.00
Language                       : English
Codec configuration box        : avcC

Audio
ID                             : 2
Format                         : AAC LC
Format/Info                    : Advanced Audio Codec Low Complexity
Codec ID                       : mp4a-40-2
Duration                       : 3 min 5 s
Bit rate mode                  : Constant
Bit rate                       : 129 kb/s
Channel(s)                     : 2 channels
Channel layout                 : L R
Sampling rate                  : 44.1 kHz
Frame rate                     : 43.066 FPS (1024 SPF)
Compression mode               : Lossy
Stream size                    : 2.83 MiB (1%)
Language                       : English
Default                        : Yes
Alternate group                : 1



网盘下载失效不补:链接: https://pan.baidu.com/s/1hANg3sw32tb7TCFdsTKZEQ
****此区域为收费内容****    需支付 15 金币后可查看立即购买


s_18027172_1436852645569_c55.gif

上一篇:超模大赛狗狗红色比基尼拉票现场 [2160P/MP4/232MB]
下一篇:与孩子玩泡泡水枪的比基尼泳装美女[2160P/MP4/168MB]
回复

使用道具 举报

0

主题

982

帖子

2962

积分

4K家园VIP

Rank: 9Rank: 9Rank: 9

积分
2962
发表于 2019-6-14 21:24:26 | 显示全部楼层
前排支持下
回复 支持 反对

使用道具 举报

0

主题

417

帖子

3118

积分

4K家园VIP

Rank: 9Rank: 9Rank: 9

积分
3118
QQ
发表于 2019-6-14 21:48:12 | 显示全部楼层
强烈支持了!!
回复 支持 反对

使用道具 举报

0

主题

888

帖子

3781

积分

中级会员

Rank: 4

积分
3781
发表于 2019-6-15 01:25:32 | 显示全部楼层

感谢楼主分享,我默默顶一下,楼主再接再厉!
回复 支持 反对

使用道具 举报

0

主题

877

帖子

2643

积分

4K家园VIP

Rank: 9Rank: 9Rank: 9

积分
2643
发表于 2019-6-15 03:55:58 | 显示全部楼层
专业抢沙发的!哈哈
回复 支持 反对

使用道具 举报

0

主题

601

帖子

3236

积分

中级会员

Rank: 4

积分
3236
发表于 2019-6-15 08:15:26 | 显示全部楼层

强烈支持了!!
回复 支持 反对

使用道具 举报

0

主题

15

帖子

41

积分

新手上路

Rank: 1

积分
41
发表于 2019-6-15 12:13:46 | 显示全部楼层

我看不错噢 谢谢楼主!4K家园越来越好!
回复 支持 反对

使用道具 举报

0

主题

983

帖子

2789

积分

4K家园VIP

Rank: 9Rank: 9Rank: 9

积分
2789
发表于 2019-6-15 22:35:56 来自手机 | 显示全部楼层
在撸一遍。。。
回复 支持 反对

使用道具 举报

47

主题

1149

帖子

3275

积分

4K家园VIP

Rank: 9Rank: 9Rank: 9

积分
3275
发表于 2019-6-16 12:22:04 | 显示全部楼层
1v1飘过
回复 支持 反对

使用道具 举报

0

主题

1279

帖子

3463

积分

4K家园VIP

Rank: 9Rank: 9Rank: 9

积分
3463
发表于 2019-6-17 10:49:26 | 显示全部楼层
哈哈,我只看看不说话
回复 支持 反对

使用道具 举报

您需要登录后才可以回帖 登录 | 立即注册

本版积分规则

精彩图文
关闭

站长推荐上一条 /1 下一条

Archiver|手机版|TAG|Sitemap|新帖|专题|联系我们:邮箱: 4kjia.com@gmail.com   

4k家园   ©2019