[4K美女视频] 与孩子玩泡泡水枪的比基尼泳装美女[2160P/MP4/168MB]

[复制链接]

1082

主题

1221

帖子

7687

积分

超级版主

Rank: 8Rank: 8

积分
7687
 楼主| 发表于 2019-6-14 09:55:22 | 显示全部楼层 |阅读模式

与孩子玩泡泡水枪的比基尼泳装美女.mp4_20190613_203313.416.jpg 与孩子玩泡泡水枪的比基尼泳装美女.mp4_20190613_203335.751.jpg 与孩子玩泡泡水枪的比基尼泳装美女.mp4_20190613_203353.567.jpg 与孩子玩泡泡水枪的比基尼泳装美女.mp4_20190613_203409.369.jpg

General
Complete name                  : 4K视频\与孩子玩泡泡水枪的比基尼泳装美女.mp4
Format                         : MPEG-4
Format profile                 : Base Media
Codec ID                       : isom (isom/iso2/avc1/mp41)
File size                      : 169 MiB
Duration                       : 1 min 24 s
Overall bit rate               : 16.9 Mb/s
Writing application            : Lavf58.12.100

Video
ID                             : 1
Format                         : AVC
Format/Info                    : Advanced Video Codec
Format profile                 : [email protected]
Format settings                : CABAC / 4 Ref Frames
Format settings, CABAC         : Yes
Format settings, ReFrames      : 4 frames
Codec ID                       : avc1
Codec ID/Info                  : Advanced Video Coding
Duration                       : 1 min 24 s
Bit rate                       : 17.0 Mb/s
Width                          : 3 836 pixels
Height                         : 1 892 pixels
Display aspect ratio           : 2.027
Frame rate mode                : Constant
Frame rate                     : 29.000 FPS
Color space                    : YUV
Chroma subsampling             : 4:2:0
Bit depth                      : 8 bits
Scan type                      : Progressive
Bits/(Pixel*Frame)             : 0.081
Stream size                    : 168 MiB (99%)
Writing library                : x264 core 148
Encoding settings              : cabac=1 / ref=3 / deblock=1:0:0 / analyse=0x3:0x113 / me=hex / subme=7 / psy=1 / psy_rd=1.00:0.00 / mixed_ref=1 / me_range=16 / chroma_me=1 / trellis=1 / 8x8dct=1 / cqm=0 / deadzone=21,11 / fast_pskip=1 / chroma_qp_offset=-2 / threads=6 / lookahead_threads=1 / sliced_threads=0 / nr=0 / decimate=1 / interlaced=0 / bluray_compat=0 / constrained_intra=0 / bframes=3 / b_pyramid=2 / b_adapt=1 / b_bias=0 / direct=1 / weightb=1 / open_gop=0 / weightp=2 / keyint=250 / keyint_min=25 / scenecut=40 / intra_refresh=0 / rc_lookahead=40 / rc=abr / mbtree=1 / bitrate=17000 / ratetol=1.0 / qcomp=0.60 / qpmin=0 / qpmax=69 / qpstep=4 / ip_ratio=1.40 / aq=1:1.00
Language                       : English
Codec configuration box        : avcC

Audio
ID                             : 2
Format                         : AAC LC
Format/Info                    : Advanced Audio Codec Low Complexity
Codec ID                       : mp4a-40-2
Duration                       : 1 min 24 s
Bit rate mode                  : Constant
Bit rate                       : 129 kb/s
Channel(s)                     : 2 channels
Channel layout                 : L R
Sampling rate                  : 44.1 kHz
Frame rate                     : 43.066 FPS (1024 SPF)
Compression mode               : Lossy
Stream size                    : 1.29 MiB (1%)
Language                       : English
Default                        : Yes
Alternate group                : 1



网盘下载失效不补:链接: https://pan.baidu.com/s/1oeGVetHdlaeP7WWg5Tdr5A
****此区域为收费内容****    需支付 15 金币后可查看立即购买


s_18027172_1436852645569_c55.gif

上一篇:嘉义市市长盃全国健美锦标赛场外花絮 [2160P/MP4/362MB]
下一篇:嘉义市健美锦标赛女子比基尼指定动作 [2160P/MP4/1.12GB]
回复

使用道具 举报

0

主题

903

帖子

2729

积分

4K家园VIP

Rank: 9Rank: 9Rank: 9

积分
2729
发表于 2019-6-14 09:55:28 | 显示全部楼层
前排支持下了哦~
回复 支持 反对

使用道具 举报

0

主题

516

帖子

2781

积分

中级会员

Rank: 4

积分
2781
发表于 2019-6-14 11:58:57 | 显示全部楼层

支持一下楼主,顶起来
回复 支持 反对

使用道具 举报

0

主题

376

帖子

2669

积分

4K家园VIP

Rank: 9Rank: 9Rank: 9

积分
2669
QQ
发表于 2019-6-14 13:59:53 | 显示全部楼层
下载支持了!!
回复 支持 反对

使用道具 举报

0

主题

910

帖子

2576

积分

4K家园VIP

Rank: 9Rank: 9Rank: 9

积分
2576
发表于 2019-6-14 22:37:52 | 显示全部楼层
众里寻他千百度,蓦然回首在这里!
回复 支持 反对

使用道具 举报

0

主题

816

帖子

3457

积分

高级会员

Rank: 3Rank: 3

积分
3457
发表于 2019-6-15 01:27:20 | 显示全部楼层

支持楼主,支持4K家园,顶一个!
回复 支持 反对

使用道具 举报

0

主题

1267

帖子

3361

积分

4K家园VIP

Rank: 9Rank: 9Rank: 9

积分
3361
发表于 2019-6-16 11:07:28 | 显示全部楼层
众里寻他千百度,蓦然回首在这里!
回复 支持 反对

使用道具 举报

189

主题

1174

帖子

3120

积分

4K家园VIP

Rank: 9Rank: 9Rank: 9

积分
3120
发表于 2019-6-16 15:41:02 | 显示全部楼层
确实不错,顶先
回复 支持 反对

使用道具 举报

0

主题

952

帖子

2706

积分

4K家园VIP

Rank: 9Rank: 9Rank: 9

积分
2706
发表于 2019-6-16 18:07:18 | 显示全部楼层
多发些资源啊
回复 支持 反对

使用道具 举报

0

主题

516

帖子

2781

积分

中级会员

Rank: 4

积分
2781
发表于 2019-6-20 11:45:33 | 显示全部楼层

楼主这资源不错,我收藏了
回复 支持 反对

使用道具 举报

您需要登录后才可以回帖 登录 | 立即注册

本版积分规则

精彩图文
关闭

站长推荐上一条 /1 下一条

4k家园   ©2019