[4K电影] 沙姆谢拉 / Shamshera (2022) 4K高清版本下载

[复制链接]

2327

主题

2476

帖子

1万

积分

超级版主

Rank: 8Rank: 8

积分
17940
 楼主| 发表于 2022-8-19 12:13:26 | 显示全部楼层 |阅读模式
本帖最后由 最爱4K哟 于 2022-8-19 12:18 编辑

QQ图片20220819111517_副本.png

◎译  名 沙姆谢拉
◎片  名 Shamshera
◎年  代 2022
◎产  地 印度
◎类  别 动作/历史
◎语  言 Hindi
◎上映日期 2022-07-22(印度)
◎IMDb评分 5.1/10 from 49114 users 更新 : 2022-08-19
◎IMDb链接 https://www.imdb.com/title/tt8426926/
◎豆瓣评分 0/10 from 0 users
◎豆瓣链接 https://movie.douban.com/subject/30240141/
◎片  长 2 h 38 min
◎导  演 卡兰·马尔霍特拉 Karan Malhotra
◎编  剧 希拉·比什特 / 卡兰·马尔霍特拉 / 皮尤斯·米什拉 Piyush Mishra
◎主  演 兰比尔·卡普尔 Ranbir Kapoor
                   桑杰·达特 Sanjay Dutt
                   瓦妮·卡普尔 Vaani Kapoor
                   索拉布·舒克拉 Saurabh Shukla
                   罗尼特·罗伊 Ronit Roy
                   图沙尔·阿查里亚 Tushar Acharya
                   马赫什·巴拉吉 Mahesh Balraj
                   Chitrak Bandyopadhyay Chitrak Bandyopadhyay
                   伊拉瓦蒂·哈舍 Iravati Harshe                  
                   卡提克·卡蒂利亚 Kartik Kathiriya
                   维杰·考希克 Vijay Kaushik
                   克雷格·麦金莱 Craig McGinlay
                   帕兰·穆尔穆 Paran Murmu
                   里海德·罗尼 Rihead Ronni Jr.
                   纳格什·萨尔万 Nagesh Salwan
                   库马尔·索拉布 Kumar Saurabh
                   普拉哈尔·萨克森 Prakhar Saxena
                   高兰什·夏尔马 Gauransh Sharma


◎简  介


在虚构的卡扎市,一个战士部落被无情的独裁者舒德辛格囚禁、奴役和折磨。Shamshera 是部落的传奇人物,他为部落的自由和尊严而不懈奋斗。
Media Info

Format                                   : Matroska
Format version                           : Version 4
File size                                : 14.2 GiB
Duration                                 : 2 h 38 min
Overall bit rate                         : 12.8 Mb/s
Encoded date                             : UTC 2022-08-18 19:10:30
Writing application                      : mkvmerge
Writing library                          : libebml v1.4.2 + libmatroska v1.6.4

Video
ID                                       : 2
Format                                   : HEVC
Format/Info                              : High Efficiency Video Coding
Format profile                           : Main@L5@Main
Codec ID                                 : V_MPEGH/ISO/HEVC
Duration                                 : 2 h 38 min
Bit rate                                 : 10.8 Mb/s
Width                                    : 3 840 pixels
Height                                   : 1 632 pixels
Display aspect ratio                     : 2.35:1
Frame rate mode                          : Constant
Frame rate                               : 24.000 FPS
Standard                                 : NTSC
Color space                              : YUV
Chroma subsampling                       : 4:2:0
Bit depth                                : 8 bits
Bits/(Pixel*Frame)                       : 0.072
Stream size                              : 12.0 GiB (85%)
Title                                    : themoviesboss
Writing library                          : x265 2.9_elemental+1-9e0607aa5b6f:[Linux][GCC 4.8.5][64 bit] 8bit+10bit+12bit
Default                                  : Yes
Forced                                   : No
Color range                              : Limited
Color primaries                          : BT.709
Transfer characteristics                 : BT.709
Matrix coefficients                      : BT.709

Audio #1
ID                                       : 3
Format                                   : E-AC-3
Format/Info                              : Enhanced AC-3
Commercial name                          : Dolby Digital Plus
Codec ID                                 : A_EAC3
Duration                                 : 2 h 38 min
Bit rate mode                            : Constant
Bit rate                                 : 640 kb/s
Channel(s)                               : 6 channels
Channel layout                           : L R C LFE Ls Rs
Sampling rate                            : 48.0 kHz
Frame rate                               : 31.250 FPS (1536 SPF)
Compression mode                         : Lossy
Stream size                              : 726 MiB (5%)
Title                                    : themoviesboss
Language                                 : Hindi
Service kind                             : Complete Main
Default                                  : Yes
Forced                                   : No

Audio #2
ID                                       : 4
Format                                   : E-AC-3
Format/Info                              : Enhanced AC-3
Commercial name                          : Dolby Digital Plus
Codec ID                                 : A_EAC3
Duration                                 : 2 h 38 min
Bit rate mode                            : Constant
Bit rate                                 : 640 kb/s
Channel(s)                               : 6 channels
Channel layout                           : L R C LFE Ls Rs
Sampling rate                            : 48.0 kHz
Frame rate                               : 31.250 FPS (1536 SPF)
Compression mode                         : Lossy
Stream size                              : 726 MiB (5%)
Title                                    : themoviesboss
Language                                 : Tamil
Service kind                             : Complete Main
Default                                  : No
Forced                                   : No

Audio #3
ID                                       : 5
Format                                   : E-AC-3
Format/Info                              : Enhanced AC-3
Commercial name                          : Dolby Digital Plus
Codec ID                                 : A_EAC3
Duration                                 : 2 h 38 min
Bit rate mode                            : Constant
Bit rate                                 : 640 kb/s
Channel(s)                               : 6 channels
Channel layout                           : L R C LFE Ls Rs
Sampling rate                            : 48.0 kHz
Frame rate                               : 31.250 FPS (1536 SPF)
Compression mode                         : Lossy
Stream size                              : 726 MiB (5%)
Title                                    : themoviesboss
Language                                 : Telugu
Service kind                             : Complete Main
Default                                  : No
Forced                                   : No

Text #1
ID                                       : 1
Format                                   : UTF-8
Codec ID                                 : S_TEXT/UTF8
Codec ID/Info                            : UTF-8 Plain Text
Duration                                 : 30 s 200 ms
Bit rate                                 : 33 b/s
Frame rate                               : 0.033 FPS
Count of elements                        : 1
Stream size                              : 128 Bytes (0%)
Language                                 : English
Default                                  : Yes
Forced                                   : Yes

Text #2
ID                                       : 6
Format                                   : UTF-8
Codec ID                                 : S_TEXT/UTF8
Codec ID/Info                            : UTF-8 Plain Text
Duration                                 : 2 h 30 min
Bit rate                                 : 34 b/s
Frame rate                               : 0.143 FPS
Count of elements                        : 1295
Stream size                              : 38.5 KiB (0%)
Title                                    : themoviesboss[Full]
Language                                 : English
Default                                  : No
Forced                                   : No

Text #3
ID                                       : 7
Format                                   : UTF-8
Codec ID                                 : S_TEXT/UTF8
Codec ID/Info                            : UTF-8 Plain Text
Duration                                 : 2 h 30 min
Bit rate                                 : 83 b/s
Frame rate                               : 0.143 FPS
Count of elements                        : 1296
Stream size                              : 92.3 KiB (0%)
Title                                    : themoviesboss[Full]
Language                                 : Hindi
Default                                  : No
Forced                                   : No

Text #4
ID                                       : 8
Format                                   : UTF-8
Codec ID                                 : S_TEXT/UTF8
Codec ID/Info                            : UTF-8 Plain Text
Duration                                 : 2 h 30 min
Bit rate                                 : 38 b/s
Frame rate                               : 0.143 FPS
Count of elements                        : 1298
Stream size                              : 42.7 KiB (0%)
Title                                    : themoviesboss[Full]
Language                                 : Malay
Default                                  : No
Forced                                   : No

资源速度为零或资源敏感被和谐时,推荐使用qBittorrent等下载软件,有条件的推荐115更好的下载软件!

下载地址:

游客,如果您要查看本帖隐藏内容请回复






上一篇:老板娘2无间潜行 [国语中字] (2022) 4K高清版本下载
下一篇:孤儿怨:首杀 / Orphan: First Kill (2022) 4K高清版本下载
回复

使用道具 举报

2327

主题

2476

帖子

1万

积分

超级版主

Rank: 8Rank: 8

积分
17940
 楼主| 发表于 2022-8-19 17:33:07 | 显示全部楼层
7a8c6bc235089662b66d9e3705a1d872.png 7b084c1d997283c2c013b24bf9938022.png 03974c94050b6b7849f4b8c77eb008b0.png 7030ff7dba2ddedeb11a60162c98647c.png a9d604f37c0fdf1abe355a1b1f803257.png ba80d09ca04abc3b558de5bc92d6893c.png
回复 支持 反对

使用道具 举报

0

主题

1319

帖子

3973

积分

4K家园VIP

Rank: 9Rank: 9Rank: 9

积分
3973
发表于 2022-8-19 12:13:29 | 显示全部楼层
回个帖子,下班咯~
回复 支持 反对

使用道具 举报

1

主题

1173

帖子

3539

积分

4K家园VIP

Rank: 9Rank: 9Rank: 9

积分
3539
发表于 2022-8-19 17:06:34 | 显示全部楼层
看起来不错
回复 支持 反对

使用道具 举报

0

主题

4

帖子

33

积分

新手上路

Rank: 1

积分
33
发表于 2022-8-19 18:00:16 | 显示全部楼层
感谢楼主分享!
回复 支持 反对

使用道具 举报

4

主题

1342

帖子

4046

积分

4K家园VIP

Rank: 9Rank: 9Rank: 9

积分
4046
发表于 2022-8-20 00:55:12 | 显示全部楼层
我也顶起出售广告位
回复 支持 反对

使用道具 举报

3

主题

1622

帖子

4462

积分

4K家园VIP

Rank: 9Rank: 9Rank: 9

积分
4462
发表于 2022-8-20 02:13:23 | 显示全部楼层
路过
回复 支持 反对

使用道具 举报

51

主题

1585

帖子

4571

积分

4K家园VIP

Rank: 9Rank: 9Rank: 9

积分
4571
发表于 2022-8-20 04:11:15 | 显示全部楼层
OMG!介是啥东东!!!
回复 支持 反对

使用道具 举报

0

主题

4

帖子

18

积分

新手上路

Rank: 1

积分
18
发表于 2022-8-20 12:16:56 来自手机 | 显示全部楼层
路过看看
回复

使用道具 举报

0

主题

3

帖子

19

积分

新手上路

Rank: 1

积分
19
发表于 2022-8-26 11:58:36 | 显示全部楼层
回复

使用道具 举报

您需要登录后才可以回帖 登录 | 立即注册

本版积分规则

精彩图文
Archiver|手机版|TAG|Sitemap|新帖|专题|联系我们:邮箱: 4kjia.com@gmail.com   

4k家园   ©2019