[4K电影] 孤儿怨:首杀 / Orphan: First Kill (2022) 4K高清版本下载

[复制链接]

2333

主题

2482

帖子

1万

积分

超级版主

Rank: 8Rank: 8

积分
17982
 楼主| 发表于 2022-8-19 18:03:10 | 显示全部楼层 |阅读模式
QQ图片20220819175342_副本.png

◎标  题 孤儿怨:首杀
◎译  名 孤儿怨前传 / 孤儿怨2:最黑暗的过去(台) / 孤疑前传(港) / 孤儿怨:第一次杀戮 / 伊斯特 / Esther
◎片  名 Orphan: First Kill
◎年  代 2022
◎产  地 美国
◎类  别 剧情 / 悬疑 / 惊悚 / 恐怖 / 犯罪
◎语  言 英语
◎上映日期 2022-07-27(菲律宾) / 2022-08-19(美国)
◎IMDb评分 6.0/10 from 1107 users Updated : 2022-08-19
◎IMDb链接 https://www.imdb.com/title/tt11851548/
◎豆瓣评分 0/10 from 0 users
◎豆瓣链接 https://movie.douban.com/subject/34970503/
◎导  演 威廉·布伦特·贝尔 William Brent Bell
◎编  剧 戴维·科格索尔 David Coggeshall / 大卫·莱斯利·约翰逊-麦戈德里克 David Leslie Johnson-McGoldrick
◎演  员 伊莎贝拉·弗尔曼 Isabelle Fuhrman
       朱丽娅·斯蒂尔斯 Julia Stiles
       罗西弗·萨瑟兰 Rossif Sutherland
       神奈川宏幸 Hiro Kanagawa
       斯蒂芬妮·西 Stephanie Sy
       劳伦·科克伦 Lauren Cochrane
       杰德·迈克尔 Jade Michael
       埃里克·阿塔瓦尔 Erik Athavale
       安德里亚·德尔·坎普 Andrea del Campo
       沙龙·巴杰 Sharon Bajer
       布拉德利·索茨基 Bradley Sawatzky
       艾丽西亚·约翰斯顿 Alicia Johnston

◎简  介

  伊斯特回来了!她身上仍有些事不太对劲……
在精心策划逃离爱沙尼亚的精神病院后,伊斯特(伊莎贝拉·弗尔曼 饰)假扮成一位来自富裕家庭失踪的女儿前往美国。然而事隔不久,触目惊心的事件接连发生,他们开始怀疑伊斯特是这些怪事的导火线……伊斯特骇人的神秘面纱即将被公诸于世。
2009年的口碑神片《孤儿怨》,以低预算的制作成本,在当年暑假档期缔造出轰动的票房。时隔13年拍摄正宗前传电影,由当初外型可爱却暗藏杀机的小女孩伊莎贝拉·弗尔曼回归主演,今年已经25岁的她,即将再度让观众惊呼连连。

Video
ID : 1
Format : HEVC
Format/Info : High Efficiency Video Coding
Format profile : Main 10@L5@Main
HDR format : SMPTE ST 2094 App 4, Version 1, HDR10+ Profile B compatible
Codec ID : V_MPEGH/ISO/HEVC
Duration : 1 h 38 min
Bit rate : 14.9 Mb/s
Width : 3 840 pixels
Height : 2 080 pixels
Display aspect ratio : 1.85:1
Frame rate mode : Constant
Frame rate : 23.976 (24000/1001) FPS
Color space : YUV
Chroma subsampling : 4:2:0
Bit depth : 10 bits
Bits/(Pixel*Frame) : 0.078
Stream size : 10.3 GiB (96%)
Default : Yes
Forced : No
Color range : Limited
Color primaries : BT.2020
Transfer characteristics : PQ
Matrix coefficients : BT.2020 non-constant
Mastering display color primaries : Display P3
Mastering display luminance : min: 0.0001 cd/m2, max: 1000 cd/m2
Maximum Content Light Level : 173 cd/m2
Maximum Frame-Average Light Level : 60 cd/m2

Audio
ID : 2
Format : E-AC-3
Format/Info : Enhanced AC-3
Commercial name : Dolby Digital Plus
Codec ID : A_EAC3
Duration : 1 h 38 min
Bit rate mode : Constant
Bit rate : 640 kb/s
Channel(s) : 6 channels
Channel layout : L R C LFE Ls Rs
Sampling rate : 48.0 kHz
Frame rate : 31.250 FPS (1536 SPF)
Compression mode : Lossy
Stream size : 452 MiB (4%)
Language : English
Service kind : Complete Main
Default : Yes
Forced : No

Text #1
ID : 3
Format : UTF-8
Codec ID : S_TEXT/UTF8
Codec ID/Info : UTF-8 Plain Text
Duration : 1 h 29 min
Bit rate : 45 b/s
Frame rate : 0.185 FPS
Count of elements : 993
Stream size : 29.8 KiB (0%)
Language : English
Default : No
Forced : No

Text #2
ID : 4
Format : UTF-8
Codec ID : S_TEXT/UTF8
Codec ID/Info : UTF-8 Plain Text
Duration : 1 h 33 min
Bit rate : 52 b/s
Frame rate : 0.215 FPS
Count of elements : 1208
Stream size : 35.8 KiB (0%)
Title : SDH
Language : English
Default : No
Forced : No

Menu
01:38:35.000 : en:Credits


资源速度为零或资源敏感被和谐时,推荐使用qBittorrent等下载软件,有条件的推荐115更好的下载软件!

下载地址:


游客,如果您要查看本帖隐藏内容请回复

游客,如果您要查看本帖隐藏内容请回复

游客,如果您要查看本帖隐藏内容请回复

游客,如果您要查看本帖隐藏内容请回复





上一篇:沙姆谢拉 / Shamshera (2022) 4K高清版本下载
下一篇:偷蒙拐骗 / Bullet Proof (2022) 4K高清版本下载
回复

使用道具 举报

1

主题

1415

帖子

4081

积分

4K家园VIP

Rank: 9Rank: 9Rank: 9

积分
4081
发表于 2022-8-19 18:03:14 | 显示全部楼层
正好需要啊
回复 支持 反对

使用道具 举报

50

主题

1554

帖子

4498

积分

4K家园VIP

Rank: 9Rank: 9Rank: 9

积分
4498
发表于 2022-8-19 18:29:03 | 显示全部楼层
前排,哇咔咔
回复 支持 反对

使用道具 举报

37

主题

1424

帖子

4088

积分

4K家园VIP

Rank: 9Rank: 9Rank: 9

积分
4088
发表于 2022-8-19 21:55:12 | 显示全部楼层
回复 支持 反对

使用道具 举报

0

主题

1351

帖子

4055

积分

4K家园VIP

Rank: 9Rank: 9Rank: 9

积分
4055
发表于 2022-8-19 23:41:24 | 显示全部楼层
前排顶,很好!
回复 支持 反对

使用道具 举报

46

主题

1516

帖子

4392

积分

4K家园VIP

Rank: 9Rank: 9Rank: 9

积分
4392
发表于 2022-8-20 05:12:06 来自手机 | 显示全部楼层
楼主这资源不错,我收藏了
回复 支持 反对

使用道具 举报

0

主题

1

帖子

6

积分

新手上路

Rank: 1

积分
6
发表于 2022-8-20 10:45:10 | 显示全部楼层
谢谢分享,看海报感觉还不错
回复 支持 反对

使用道具 举报

0

主题

1

帖子

12

积分

新手上路

Rank: 1

积分
12
发表于 2022-8-20 13:27:29 | 显示全部楼层
前排
回复

使用道具 举报

0

主题

3

帖子

19

积分

新手上路

Rank: 1

积分
19
发表于 2022-8-21 18:56:45 | 显示全部楼层
谢谢
回复

使用道具 举报

0

主题

1

帖子

6

积分

新手上路

Rank: 1

积分
6
发表于 2022-8-30 18:54:32 来自手机 | 显示全部楼层
哦哦哦
回复

使用道具 举报

您需要登录后才可以回帖 登录 | 立即注册

本版积分规则

精彩图文
Archiver|手机版|TAG|Sitemap|新帖|专题|联系我们:邮箱: 4kjia.com@gmail.com   

4k家园   ©2019