[4K电影] 德罗弗斯的妻子 (2021) 4K高清版本下载

[复制链接]

2327

主题

2476

帖子

1万

积分

超级版主

Rank: 8Rank: 8

积分
17940
 楼主| 发表于 2022-8-19 19:19:31 | 显示全部楼层 |阅读模式
QQ图片20220819185740_副本.png

◎译  名 德罗弗斯的妻子/The Drover's Wife
◎片  名 The Drover's Wife: The Legend of Molly Johnson
◎年  代 2021
◎产  地 澳大利亚
◎类  别 剧情
◎语  言 英语
◎上映日期 2021-03-16(西南偏南电影节)/2022-05-05(澳大利亚)
◎IMDb评分 6.2/10 from 593 users 更新 : 2022-08-17
◎IMDb链接 https://www.imdb.com/title/tt11162490/
◎豆瓣评分 0/10 from 0 users
◎豆瓣链接 https://movie.douban.com/subject/34965900/
◎导  演 利亚·珀赛尔 Leah Purcell
◎编  剧 利亚·珀赛尔 Leah Purcell
◎主  演 杰西卡·德·古维 Jessica De Gouw
       萨姆·里德 Sam Reid
       塔米·麦金托什 Tammy McIntosh
       本尼迪克·哈迪 Benedict Hardie
                   罗布·柯林斯 Rob Collins
                   Jessica De Gouw Jessica De Gouw
                   马拉奇·道尔·罗伯茨 Malachi Dower-Roberts
                   乔布·扎米特·哈维 Jobe Zammit-Harvey
                   纳什·扎米特·哈维 Nash Zammit-Harvey
                   本尼迪克特·哈迪 Benedict Hardie
                   阿玛莉亚·奥尔森 Amahlia Olsson
                   Magnolia Maymuru Magnolia Maymuru
                   安德鲁·莱格 Andrew Legg
                   格雷格·亚瑟 Gregg Arthur
                   大卫·巴内特 David Barnett
                   克雷格·伯克 Craig Bourke
                   安东尼·科金 Anthony Cogin
                   Shaka Cook Shaka Cook
                   玛姬·丹丝 Maggie Dence
                   塞巴斯蒂安·迪金斯 Sebastian Dickins



◎简  介

  《车夫的妻子:莫莉·约翰逊的传奇》是对莉亚·普赛尔的著名戏剧和亨利·劳森的经典短篇小说的重新想象。一部炙手可热的澳大利亚西部惊悚片提出了这样一个问题:你在保护你所爱的人方面走了多远?

Video
ID : 1
Format : HEVC
Format/Info : High Efficiency Video Coding
Format profile : Main 10@L5@High
Codec ID : V_MPEGH/ISO/HEVC
Duration : 1 h 48 min
Bit rate : 11.9 Mb/s
Width : 3 836 pixels
Height : 1 600 pixels
Display aspect ratio : 2.40:1
Original display aspect ratio : 2.40:1
Frame rate mode : Constant
Frame rate : 24.000 FPS
Color space : YUV
Chroma subsampling : 4:2:0
Bit depth : 10 bits
Bits/(Pixel*Frame) : 0.081
Stream size : 9.00 GiB (97%)
Default : Yes
Forced : No
Color range : Limited
Color primaries : BT.709
Transfer characteristics : BT.709
Matrix coefficients : BT.709

Audio
ID : 2
Format : AC-3
Format/Info : Audio Coding 3
Commercial name : Dolby Digital
Codec ID : A_AC3
Duration : 1 h 48 min
Bit rate mode : Constant
Bit rate : 384 kb/s
Channel(s) : 6 channels
Channel layout : L R C LFE Ls Rs
Sampling rate : 48.0 kHz
Frame rate : 31.250 FPS (1536 SPF)
Compression mode : Lossy
Stream size : 298 MiB (3%)
Language : English
Service kind : Complete Main
Default : Yes
Forced : No

Text
ID : 3
Format : UTF-8
Codec ID : S_TEXT/UTF8
Codec ID/Info : UTF-8 Plain Text
Duration : 1 h 22 min
Bit rate : 43 b/s
Frame rate : 0.186 FPS
Count of elements : 920
Stream size : 26.5 KiB (0%)
Language : English
Default : Yes
Forced : No


资源速度为零或资源敏感被和谐时,推荐使用qBittorrent等下载软件,有条件的推荐115更好的下载软件!

下载地址:


游客,如果您要查看本帖隐藏内容请回复





上一篇:无瑕的房间 / The Immaculate Room (2022) 4K高清版本下载
下一篇:谁有 扎导的《猫头鹰王国》2160p的源?
回复

使用道具 举报

1

主题

1356

帖子

4084

积分

4K家园VIP

Rank: 9Rank: 9Rank: 9

积分
4084
发表于 2022-8-19 19:19:36 | 显示全部楼层
元芳你怎么看?
回复 支持 反对

使用道具 举报

0

主题

475

帖子

2895

积分

注册会员

Rank: 2

积分
2895
发表于 2022-8-21 14:08:54 | 显示全部楼层
开心开心
回复

使用道具 举报

0

主题

8663

帖子

2万

积分

4K家园VIP

Rank: 9Rank: 9Rank: 9

积分
20189
发表于 2022-8-21 23:52:02 | 显示全部楼层
太好啦&萬分感謝版主的無私發佈分享%
回复 支持 反对

使用道具 举报

3

主题

1331

帖子

3799

积分

4K家园VIP

Rank: 9Rank: 9Rank: 9

积分
3799
发表于 2022-8-24 03:08:16 来自手机 | 显示全部楼层
支持一下楼主,顶起来
回复 支持 反对

使用道具 举报

0

主题

55

帖子

780

积分

新手上路

Rank: 1

积分
780
发表于 2022-9-2 06:06:10 | 显示全部楼层
看禁闻http://v.ht/tttd 点击访问
回复

使用道具 举报

0

主题

5

帖子

31

积分

新手上路

Rank: 1

积分
31
发表于 2022-9-5 23:29:26 | 显示全部楼层
让 江小白 来看看帖子里藏了啥好东西~~~
回复 支持 反对

使用道具 举报

51

主题

1420

帖子

4092

积分

4K家园VIP

Rank: 9Rank: 9Rank: 9

积分
4092
发表于 6 天前 | 显示全部楼层
不错 支持下
回复 支持 反对

使用道具 举报

1

主题

1690

帖子

4726

积分

4K家园VIP

Rank: 9Rank: 9Rank: 9

积分
4726
发表于 5 天前 来自手机 | 显示全部楼层
谢谢楼主
回复 支持 反对

使用道具 举报

0

主题

3

帖子

12

积分

新手上路

Rank: 1

积分
12
发表于 5 天前 | 显示全部楼层
66666666,6666,66666
回复 支持 反对

使用道具 举报

您需要登录后才可以回帖 登录 | 立即注册

本版积分规则

精彩图文
Archiver|手机版|TAG|Sitemap|新帖|专题|联系我们:邮箱: 4kjia.com@gmail.com   

4k家园   ©2019