[4K MV] 2022 Aespa-女孩 [2160P/MP4/733MB]

[复制链接]

2856

主题

3223

帖子

2万

积分

超级版主

Rank: 8Rank: 8

积分
27260
 楼主| 发表于 2022-8-20 19:37:08 | 显示全部楼层 |阅读模式
本帖最后由 叽里呱啦 于 2022-8-20 19:39 编辑

Aespa - Girls.mp4_20220820_192400.056.jpg Aespa - Girls.mp4_20220820_192419.240.jpg Aespa - Girls.mp4_20220820_192435.520.jpg Aespa - Girls.mp4_20220820_192444.744.jpg Aespa - Girls.mp4_20220820_192504.744.jpg Aespa - Girls.mp4_20220820_192525.792.jpg

General
Complete name                  : G:\4K MV\Aespa - 女孩.mp4
Format                         : MPEG-4
Format profile                 : Base Media / Version 2
Codec ID                       : mp42 (mp42/mp41/isom/avc1)
File size                      : 733 MiB
Duration                       : 4 min 28 s
Overall bit rate mode          : Variable
Overall bit rate               : 22.9 Mb/s
Encoded date                   : UTC 2022-07-08 06:25:57
Tagged date                    : UTC 2022-07-08 06:25:57

Video
ID                             : 1
Format                         : AVC
Format/Info                    : Advanced Video Codec
Format profile                 : High@L5.2
Format settings                : CABAC / 5 Ref Frames
Format settings, CABAC         : Yes
Format settings, Reference fra : 5 frames
Codec ID                       : avc1
Codec ID/Info                  : Advanced Video Coding
Duration                       : 4 min 28 s
Bit rate                       : 22.6 Mb/s
Width                          : 3 840 pixels
Height                         : 2 160 pixels
Display aspect ratio           : 16:9
Frame rate mode                : Constant
Frame rate                     : 23.976 (24000/1001) FPS
Color space                    : YUV
Chroma subsampling             : 4:2:0
Bit depth                      : 8 bits
Scan type                      : Progressive
Bits/(Pixel*Frame)             : 0.114
Stream size                    : 725 MiB (99%)
Writing library                : x264 core 164 r10 bfc87b7
Encoding settings              : cabac=1 / ref=5 / deblock=1:0:0 / analyse=0x3:0x113 / me=hex / subme=8 / psy=1 / psy_rd=1.00:0.00 / mixed_ref=1 / me_range=16 / chroma_me=1 / trellis=2 / 8x8dct=1 / cqm=0 / deadzone=21,11 / fast_pskip=1 / chroma_qp_offset=-2 / threads=48 / lookahead_threads=8 / sliced_threads=0 / nr=0 / decimate=1 / interlaced=0 / bluray_compat=0 / stitchable=1 / constrained_intra=0 / bframes=3 / b_pyramid=2 / b_adapt=2 / b_bias=0 / direct=3 / weightb=1 / open_gop=0 / weightp=2 / keyint=infinite / keyint_min=23 / scenecut=40 / intra_refresh=0 / rc_lookahead=50 / rc=crf / mbtree=1 / crf=20.0 / qcomp=0.60 / qpmin=5 / qpmax=69 / qpstep=4 / vbv_maxrate=24200 / vbv_bufsize=66000 / crf_max=0.0 / nal_hrd=none / filler=0 / ip_ratio=1.40 / aq=1:1.00
Encoded date                   : UTC 2022-07-08 06:25:57
Tagged date                    : UTC 2022-07-08 06:25:57
Color range                    : Limited
Color primaries                : BT.709
Transfer characteristics       : BT.709
Matrix coefficients            : BT.709
Codec configuration box        : avcC

Audio
ID                             : 2
Format                         : AAC LC
Format/Info                    : Advanced Audio Codec Low Complexity
Codec ID                       : mp4a-40-2
Duration                       : 4 min 28 s
Bit rate mode                  : Variable
Bit rate                       : 253 kb/s
Channel(s)                     : 2 channels
Channel layout                 : L R
Sampling rate                  : 48.0 kHz
Frame rate                     : 46.875 FPS (1024 SPF)
Compression mode               : Lossy
Stream size                    : 8.11 MiB (1%)
Encoded date                   : UTC 2022-07-08 06:25:57
Tagged date                    : UTC 2022-07-08 06:25:57

下载地址:

下载问题,不要用迅雷,不要用迅雷,不要用迅雷,不要用迅雷,不要用迅雷,不要用迅雷
****此区域为收费内容****    需支付 30 金币后可查看立即购买

提供2010-2022年本人多年来珍藏优质[4K、8K、16K(25-120fps)] 高品质韩国(女团)MV、各种演示片、测试片等4K韩国MV“珍藏版”视频硬盘有偿拷贝或网盘分享,最新4K视频每天更新中,需要的联系本楼主!




上一篇:[4K MV] 2022 Itzy - Sneakers(运动鞋) [2160P/MP4/1.72GB]
下一篇:[4K 欧美MV]奥利维亚·亚当斯-骗我一次[2160P/MP4/532MB]
回复

使用道具 举报

2

主题

1361

帖子

3903

积分

4K家园VIP

Rank: 9Rank: 9Rank: 9

积分
3903
发表于 2022-8-20 19:37:13 | 显示全部楼层
有空一起交流一下
回复 支持 反对

使用道具 举报

2

主题

1378

帖子

3924

积分

4K家园VIP

Rank: 9Rank: 9Rank: 9

积分
3924
发表于 2022-8-21 03:20:23 来自手机 | 显示全部楼层
多发些资源啊
回复 支持 反对

使用道具 举报

4

主题

1368

帖子

4115

积分

4K家园VIP

Rank: 9Rank: 9Rank: 9

积分
4115
发表于 2022-8-21 04:54:13 来自手机 | 显示全部楼层
感谢推荐,确实不错
回复 支持 反对

使用道具 举报

0

主题

1199

帖子

3611

积分

4K家园VIP

Rank: 9Rank: 9Rank: 9

积分
3611
发表于 2022-8-21 05:29:13 | 显示全部楼层
支持支持再支持
回复 支持 反对

使用道具 举报

0

主题

1182

帖子

3560

积分

4K家园VIP

Rank: 9Rank: 9Rank: 9

积分
3560
发表于 2022-8-21 09:29:27 | 显示全部楼层
支持你哈...................................
回复 支持 反对

使用道具 举报

0

主题

8663

帖子

2万

积分

4K家园VIP

Rank: 9Rank: 9Rank: 9

积分
20189
发表于 2022-8-22 23:07:43 | 显示全部楼层
太好啦&萬分感謝版主的無私發佈分享%
回复 支持 反对

使用道具 举报

1

主题

9

帖子

38

积分

新手上路

Rank: 1

积分
38
发表于 2022-8-30 12:20:55 | 显示全部楼层
为啥,反正支持‘’‘
回复 支持 反对

使用道具 举报

0

主题

2

帖子

24

积分

新手上路

Rank: 1

积分
24
发表于 2022-8-30 12:56:07 | 显示全部楼层

Where is Administration 4kjia.com ??

bWoIxbKO ??? 2022-8-21 09:29
????...................................

Can I contact admin??
It is important.
Thank.
回复 支持 反对

使用道具 举报

0

主题

2

帖子

21

积分

新手上路

Rank: 1

积分
21
发表于 2022-8-31 04:54:38 | 显示全部楼层

Where is Administration 4kjia.com ??


Where is admin?
It is about advertisement on your website.
Regards.
回复 支持 反对

使用道具 举报

您需要登录后才可以回帖 登录 | 立即注册

本版积分规则

精彩图文
Archiver|手机版|TAG|Sitemap|新帖|专题|联系我们:邮箱: 4kjia.com@gmail.com   

4k家园   ©2019