[韩国4KMV] 红色天鹅绒 - Zimzalabim [2160P/MP4/378MB]

[复制链接]

800

主题

883

帖子

5531

积分

超级版主

Rank: 8Rank: 8

积分
5531
 楼主| 发表于 2019-6-21 11:25:17 | 显示全部楼层 |阅读模式
本帖最后由 叽里呱啦 于 2019-6-25 18:48 编辑

红色天鹅绒 - Zimzalabim.mp4_20190621_111357.749.jpg 红色天鹅绒 - Zimzalabim.mp4_20190621_111526.402.jpg 红色天鹅绒 - Zimzalabim.mp4_20190621_111536.144.jpg 红色天鹅绒 - Zimzalabim.mp4_20190621_111541.279.jpg 红色天鹅绒 - Zimzalabim.mp4_20190621_111546.062.jpg 红色天鹅绒 - Zimzalabim.mp4_20190621_111604.950.jpg

General
Complete name                  : 红色天鹅绒 - Zimzalabim.mp4
Format                         : MPEG-4
Format profile                 : Base Media
Codec ID                       : isom (isom/iso2/avc1/mp41)
File size                      : 379 MiB
Duration                       : 3 min 15 s
Overall bit rate               : 16.3 Mb/s
Writing application            : EX1.5.0(C1.0.9)

Video
ID                             : 1
Format                         : AVC
Format/Info                    : Advanced Video Codec
Format profile                 : [email protected]
Format settings                : CABAC / 3 Ref Frames
Format settings, CABAC         : Yes
Format settings, Reference fra : 3 frames
Codec ID                       : avc1
Codec ID/Info                  : Advanced Video Coding
Duration                       : 3 min 15 s
Bit rate                       : 16.1 Mb/s
Width                          : 3 840 pixels
Height                         : 2 160 pixels
Display aspect ratio           : 16:9
Frame rate mode                : Constant
Frame rate                     : 23.976 (23976/1000) FPS
Color space                    : YUV
Chroma subsampling             : 4:2:0
Bit depth                      : 8 bits
Scan type                      : Progressive
Bits/(Pixel*Frame)             : 0.081
Stream size                    : 375 MiB (99%)
Color range                    : Limited
Color primaries                : BT.709
Transfer characteristics       : BT.709
Matrix coefficients            : BT.709
Codec configuration box        : avcC

Audio
ID                             : 2
Format                         : AAC LC
Format/Info                    : Advanced Audio Codec Low Complexity
Codec ID                       : mp4a-40-2
Duration                       : 3 min 15 s
Bit rate mode                  : Constant
Bit rate                       : 192 kb/s
Channel(s)                     : 2 channels
Channel layout                 : L R
Sampling rate                  : 48.0 kHz
Frame rate                     : 46.875 FPS (1024 SPF)
Compression mode               : Lossy
Stream size                    : 4.48 MiB (1%)
Default                        : Yes
Alternate group                : 1


游客,如果您要查看本帖隐藏内容请回复

网盘下载失效不补:链接: https://pan.baidu.com/s/11G7N53MKRGwf929VONxf5A
****此区域为收费内容****    需支付 30 金币后可查看立即购买
s_18027172_1436852645569_c55.gif





上一篇:[韩国4KMV]红色天鹅绒-哑巴 EVC-60fps-10bit [2160P/TS/830MB]
下一篇:[韩国4KMV]樱桃子弹-真的 真的 [2016P/M4P/368MB]
回复

使用道具 举报

0

主题

838

帖子

2526

积分

4K家园VIP

Rank: 9Rank: 9Rank: 9

积分
2526
发表于 2019-6-21 11:25:21 | 显示全部楼层
看起来好像不错的样子
回复 支持 反对

使用道具 举报

47

主题

1102

帖子

3142

积分

4K家园VIP

Rank: 9Rank: 9Rank: 9

积分
3142
发表于 2019-6-21 13:17:20 | 显示全部楼层
LZ敢整点更有创意的不?兄弟们等着围观捏~
回复 支持 反对

使用道具 举报

0

主题

954

帖子

2666

积分

4K家园VIP

Rank: 9Rank: 9Rank: 9

积分
2666
发表于 2019-6-21 14:29:06 | 显示全部楼层
前排顶起
回复 支持 反对

使用道具 举报

0

主题

5

帖子

71

积分

4K家园VIP

Rank: 9Rank: 9Rank: 9

积分
71
QQ
发表于 2019-6-21 16:58:25 | 显示全部楼层
这么好的东西,竟然没人点赞
回复 支持 反对

使用道具 举报

0

主题

1

帖子

16

积分

新手上路

Rank: 1

积分
16
发表于 2019-6-21 23:46:56 | 显示全部楼层
想看想看,好想看
回复 支持 反对

使用道具 举报

0

主题

2

帖子

22

积分

新手上路

Rank: 1

积分
22
发表于 2019-6-22 00:04:19 | 显示全部楼层
顶顶顶,谢谢分享!!!!!!
回复 支持 反对

使用道具 举报

0

主题

7

帖子

56

积分

新手上路

Rank: 1

积分
56
发表于 2019-6-22 00:09:53 | 显示全部楼层
怎么免费试看
回复 支持 反对

使用道具 举报

0

主题

643

帖子

2745

积分

中级会员

Rank: 4

积分
2745
发表于 2019-6-22 00:16:22 | 显示全部楼层
楼主发贴辛苦了,谢谢楼主分享!我觉得来4K家园是注册对了!
回复 支持 反对

使用道具 举报

0

主题

19

帖子

363

积分

注册会员

Rank: 2

积分
363
发表于 2019-6-22 00:19:00 | 显示全部楼层
艰且好看吗
回复 支持 反对

使用道具 举报

您需要登录后才可以回帖 登录 | 立即注册

本版积分规则

精彩图文
关闭

站长推荐上一条 /2 下一条

4k家园   ©2019