[4K电影] 魔力女战士 [简繁粤中字] / Aeon.Flux (2005) 4K高清版本下载

[复制链接]

2327

主题

2476

帖子

1万

积分

超级版主

Rank: 8Rank: 8

积分
17940
 楼主| 发表于 2022-8-23 10:47:03 | 显示全部楼层 |阅读模式
本帖最后由 最爱4K哟 于 2022-8-23 19:19 编辑

QQ图片20220823103644_副本.png

◎标  题 魔力女战士
◎译  名 万古流传 / 倩影刺客 / Aeon Flux
◎片  名 Æon Flux
◎年  代 2005
◎产  地 美国
◎类  别 动作 / 科幻 / 冒险
◎语  言 英语
◎上映日期 2005-12-02
◎IMDb评分 5.4/10 from 128441 users 更新 : 2022-08-21
◎IMDb链接 https://www.imdb.com/title/tt0402022/
◎豆瓣评分 5.7/10 from 15290 users 更新 : 2022-08-23
◎豆瓣链接 https://movie.douban.com/subject/1309065/
◎片  长 93 分钟
◎导  演 卡瑞恩·库萨马 Karyn Kusama
◎编  剧 费尔·海伊 Phil Hay / 马特·曼弗莱迪 Matt Manfredi / 钟彼得 Peter Chung
◎演  员 查理兹·塞隆 Charlize Theron
       马尔顿·索克斯 Marton Csokas
       约翰尼·李·米勒 Jonny Lee Miller
       苏菲·奥康内多 Sophie Okonedo
       弗兰西斯·麦克多蒙德 Frances McDormand
       皮特·波斯尔思韦特 Pete Postlethwaite
       阿梅丽娅·华纳 Amelia Warner
       卡罗琳·奇克泽 Caroline Chikezie
       尼科莱·金斯基 Nikolai Kinski
       佩特逊·约瑟夫 Paterson Joseph
       央宗•布劳恩 Yangzom Brauen
       Thomas Huber Thomas Huber
       Weijian Liu Weijian Liu
       Maverick Quek Maverick Quek
       Ralph Herforth Ralph Herforth
       Megan Gay Megan Gay
       查理·比尔 Charlie Beall
       Ronald Marx Ronald Marx
       阿克瑟·施奈伯 Axel Schreiber
       肖恩·劳顿 Shaun Lawton
       贝蒂 奥金诺 Betty Okino
       安纳托·陶布曼 Anatole Taubman
       拉文尼娅·威尔森 Lavinia Wilson
       费尔·海伊 Phil Hay
       Bojan Heyn Bojan Heyn
       Joost Siedhoff Joost Siedhoff
       娜格斯·拉什迪 Narges Rashidi
       米尔顿·威尔士 Milton Welsh
       Natacza Boon Natacza Boon
       迈克尔·品克 Michael Pink
       Jannik Büddig Jannik Büddig
       米尔科·朗 Mirko Lang
       Mickey Nedimovic Mickey Nedimovic
       维尔·鲁特根 Wil Röttgen
       沃尔夫冈·施特格曼 Wolfgang Stegemann
       斯图尔特·汤森德 Stuart Townsend
       蒂米·特林克斯 Timmi Trinks
       Van Toffler Van Toffler
       汤姆·罗森伯格 Tom Rosenberg
       David Gale David Gale
       Martha Griffin Martha Griffin
       加里·卢切西 Gary Lucchesi
       彼得·霍尼斯 Peter Honess
       劳拉·罗森塔尔 Laura Rosenthal
       安德鲁·麦克阿尔平 Andrew McAlpine
       Marco Bittner Rosser Marco Bittner Rosser
       加里·弗里曼 Gary Freeman
       John Frankish John Frankish
       Beatrix Aruna Pasztor Beatrix Aruna Pasztor
       丹妮丝·卡姆 Denise Kum
       Mitchell J. Coughlin Mitchell J. Coughlin
       Wolfgang Böge Wolfgang Böge
       恩佐·昂吉莱利 Enzo Angileri
       安娜·福斯特 Anna Foerster


◎简  介


  21世纪初,一场瘟疫夺去了99%的人类生命,幸存者们依靠科学家古德查德的发明,建造孤城布瑞拉格维系文明。时间过去四百年后,部分市民不满古德查德政权独裁统治与持续发生的失踪案,组建武装力量魔力党(Monicans)对抗。
女战士伊恩(查理兹·塞隆 Charlize Theron 饰)是魔力党中实力顶尖的人物,在完成破坏古德查德监控系统的任务中,伊恩目睹了被对方杀害的亲妹遗体,伊恩在怒火添胸时得到了刺杀古德查德首脑特雷弗的指令,但当她与特雷弗面对面时,对方呼唤“凯瑟琳”这个名字让她陷入混乱的记忆无法行动。伊恩脱身后着手调查这座城市的真相,发现一直以来的失踪案与克隆计划息息相关,而布瑞拉格运行的基础便是复制人类。伊恩的发现很快引起连锁反应,将各方势力卷入其中……

Video
ID : 1
Format : HEVC
Format/Info : High Efficiency Video Coding
Format profile : Main 10@L5@High
HDR format : Dolby Vision, Version 1.0, dvhe.05.06, BL+RPU
Codec ID : V_MPEGH/ISO/HEVC
Duration : 1 h 32 min
Bit rate : 24.1 Mb/s
Width : 3 840 pixels
Height : 1 634 pixels
Display aspect ratio : 2.35:1
Frame rate mode : Constant
Frame rate : 23.976 (24000/1001) FPS
Color space : YUV
Chroma subsampling : 4:2:0
Bit depth : 10 bits
Bits/(Pixel*Frame) : 0.160
Stream size : 15.7 GiB (83%)
Language : English
Default : Yes
Forced : No

Audio #1
ID : 2
Format : DTS XLL
Format/Info : Digital Theater Systems
Commercial name : DTS-HD Master Audio
Codec ID : A_DTS
Duration : 1 h 32 min
Bit rate mode : Variable
Bit rate : 3 874 kb/s
Channel(s) : 6 channels
Channel layout : C L R Ls Rs LFE
Sampling rate : 48.0 kHz
Frame rate : 93.750 FPS (512 SPF)
Bit depth : 24 bits
Compression mode : Lossless
Delay relative to video : 7 ms
Stream size : 2.51 GiB (13%)
Language : English
Default : Yes
Forced : No

Audio #2
ID : 3
Format : AC-3
Format/Info : Audio Coding 3
Commercial name : Dolby Digital
Codec ID : A_AC3
Duration : 1 h 32 min
Bit rate mode : Constant
Bit rate : 640 kb/s
Channel(s) : 6 channels
Channel layout : L R C LFE Ls Rs
Sampling rate : 48.0 kHz
Frame rate : 31.250 FPS (1536 SPF)
Compression mode : Lossy
Stream size : 425 MiB (2%)
Title : DD 5.1
Language : English
Service kind : Complete Main
Default : No
Forced : No

Audio #3
ID : 4
Format : AC-3
Format/Info : Audio Coding 3
Commercial name : Dolby Digital
Codec ID : A_AC3
Duration : 1 h 32 min
Bit rate mode : Constant
Bit rate : 256 kb/s
Channel(s) : 2 channels
Channel layout : L R
Sampling rate : 48.0 kHz
Frame rate : 31.250 FPS (1536 SPF)
Compression mode : Lossy
Delay relative to video : 17 ms
Stream size : 170 MiB (1%)
Title : Commentary with actress Charlize Theron and executive producer Gail Ann Hurd
Language : English
Service kind : Complete Main
Default : No
Forced : No

Audio #4
ID : 5
Format : AC-3
Format/Info : Audio Coding 3
Commercial name : Dolby Digital
Codec ID : A_AC3
Duration : 1 h 32 min
Bit rate mode : Constant
Bit rate : 256 kb/s
Channel(s) : 2 channels
Channel layout : L R
Sampling rate : 48.0 kHz
Frame rate : 31.250 FPS (1536 SPF)
Compression mode : Lossy
Delay relative to video : 17 ms
Stream size : 170 MiB (1%)
Title : Commentary with writers Phil Hay and Matt Manfredi
Language : English
Service kind : Complete Main
Default : No
Forced : No

Text #1
ID : 6
Format : UTF-8
Codec ID : S_TEXT/UTF8
Codec ID/Info : UTF-8 Plain Text
Duration : 1 h 23 min
Bit rate : 38 b/s
Frame rate : 0.141 FPS
Count of elements : 709
Stream size : 23.4 KiB (0%)
Language : English
Default : Yes
Forced : No

Text #2
ID : 7
Format : UTF-8
Codec ID : S_TEXT/UTF8
Codec ID/Info : UTF-8 Plain Text
Duration : 1 h 24 min
Bit rate : 43 b/s
Frame rate : 0.160 FPS
Count of elements : 807
Stream size : 26.8 KiB (0%)
Title : SDH
Language : English
Default : No
Forced : No

Text #3
ID : 8
Format : UTF-8
Codec ID : S_TEXT/UTF8
Codec ID/Info : UTF-8 Plain Text
Duration : 1 h 24 min
Bit rate : 51 b/s
Frame rate : 0.142 FPS
Count of elements : 723
Stream size : 32.0 KiB (0%)
Language : Arabic
Default : No
Forced : No

Text #4
ID : 9
Format : UTF-8
Codec ID : S_TEXT/UTF8
Codec ID/Info : UTF-8 Plain Text
Duration : 1 h 24 min
Bit rate : 61 b/s
Frame rate : 0.143 FPS
Count of elements : 728
Stream size : 38.1 KiB (0%)
Language : Bulgarian
Default : No
Forced : No

Text #5
ID : 10
Format : UTF-8
Codec ID : S_TEXT/UTF8
Codec ID/Info : UTF-8 Plain Text
Duration : 1 h 25 min
Bit rate : 30 b/s
Frame rate : 0.141 FPS
Count of elements : 730
Stream size : 19.1 KiB (0%)
Title : 中文(简体)
Language : 中文
Default : No
Forced : No

Text #6
ID : 11
Format : UTF-8
Codec ID : S_TEXT/UTF8
Codec ID/Info : UTF-8 Plain Text
Duration : 1 h 24 min
Bit rate : 27 b/s
Frame rate : 0.140 FPS
Count of elements : 711
Stream size : 17.2 KiB (0%)
Title : 中文(繁体)
Language : 中文
Default : No
Forced : No


Text #7
ID : 12
Format : UTF-8
Codec ID : S_TEXT/UTF8
Codec ID/Info : UTF-8 Plain Text
Duration : 1 h 24 min
Bit rate : 37 b/s
Frame rate : 0.142 FPS
Count of elements : 723
Stream size : 23.1 KiB (0%)
Language : Danish
Default : No
Forced : No

Text #8
ID : 13
Format : UTF-8
Codec ID : S_TEXT/UTF8
Codec ID/Info : UTF-8 Plain Text
Duration : 1 h 24 min
Bit rate : 37 b/s
Frame rate : 0.143 FPS
Count of elements : 726
Stream size : 23.3 KiB (0%)
Title : Latin American
Language : Spanish
Default : No
Forced : No

Text #9
ID : 14
Format : UTF-8
Codec ID : S_TEXT/UTF8
Codec ID/Info : UTF-8 Plain Text
Duration : 1 h 24 min
Bit rate : 37 b/s
Frame rate : 0.143 FPS
Count of elements : 728
Stream size : 23.5 KiB (0%)
Language : Finnish
Default : No
Forced : No

Text #10
ID : 15
Format : UTF-8
Codec ID : S_TEXT/UTF8
Codec ID/Info : UTF-8 Plain Text
Duration : 1 h 24 min
Bit rate : 55 b/s
Frame rate : 0.143 FPS
Count of elements : 728
Stream size : 34.8 KiB (0%)
Language : Hebrew
Default : No
Forced : No

Text #11
ID : 16
Format : UTF-8
Codec ID : S_TEXT/UTF8
Codec ID/Info : UTF-8 Plain Text
Duration : 1 h 31 min
Bit rate : 88 b/s
Frame rate : 0.132 FPS
Count of elements : 727
Stream size : 59.5 KiB (0%)
Language : Hindi
Default : No
Forced : No

Text #12
ID : 17
Format : UTF-8
Codec ID : S_TEXT/UTF8
Codec ID/Info : UTF-8 Plain Text
Duration : 1 h 24 min
Bit rate : 30 b/s
Frame rate : 0.132 FPS
Count of elements : 671
Stream size : 19.0 KiB (0%)
Language : Dutch
Default : No
Forced : No

Text #13
ID : 18
Format : UTF-8
Codec ID : S_TEXT/UTF8
Codec ID/Info : UTF-8 Plain Text
Duration : 1 h 24 min
Bit rate : 33 b/s
Frame rate : 0.140 FPS
Count of elements : 714
Stream size : 20.8 KiB (0%)
Language : Norwegian
Default : No
Forced : No

Text #14
ID : 19
Format : UTF-8
Codec ID : S_TEXT/UTF8
Codec ID/Info : UTF-8 Plain Text
Duration : 1 h 24 min
Bit rate : 32 b/s
Frame rate : 0.139 FPS
Count of elements : 709
Stream size : 20.1 KiB (0%)
Language : Polish
Default : No
Forced : No

Text #15
ID : 20
Format : UTF-8
Codec ID : S_TEXT/UTF8
Codec ID/Info : UTF-8 Plain Text
Duration : 1 h 24 min
Bit rate : 37 b/s
Frame rate : 0.142 FPS
Count of elements : 723
Stream size : 23.0 KiB (0%)
Title : Brazilian
Language : Portuguese
Default : No
Forced : No

Text #16
ID : 21
Format : UTF-8
Codec ID : S_TEXT/UTF8
Codec ID/Info : UTF-8 Plain Text
Duration : 1 h 24 min
Bit rate : 39 b/s
Frame rate : 0.143 FPS
Count of elements : 728
Stream size : 24.2 KiB (0%)
Language : Portuguese
Default : No
Forced : No

Text #17
ID : 22
Format : UTF-8
Codec ID : S_TEXT/UTF8
Codec ID/Info : UTF-8 Plain Text
Duration : 1 h 24 min
Bit rate : 37 b/s
Frame rate : 0.142 FPS
Count of elements : 722
Stream size : 23.2 KiB (0%)
Language : Swedish
Default : No
Forced : No

Text #18
ID : 23
Format : UTF-8
Codec ID : S_TEXT/UTF8
Codec ID/Info : UTF-8 Plain Text
Duration : 1 h 24 min
Bit rate : 82 b/s
Frame rate : 0.143 FPS
Count of elements : 726
Stream size : 51.4 KiB (0%)
Language : Thai
Default : No
Forced : No

Text #19
ID : 24
Format : UTF-8
Codec ID : S_TEXT/UTF8
Codec ID/Info : UTF-8 Plain Text
Duration : 1 h 24 min
Bit rate : 38 b/s
Frame rate : 0.143 FPS
Count of elements : 729
Stream size : 23.6 KiB (0%)
Language : Turkish
Default : No
Forced : No

Text #20
ID : 25
Format : UTF-8
Codec ID : S_TEXT/UTF8
Codec ID/Info : UTF-8 Plain Text
Duration : 1 h 24 min
Bit rate : 31 b/s
Frame rate : 0.143 FPS
Count of elements : 729
Stream size : 19.3 KiB (0%)
Title : 中文(粤语)
Language : 中文
Default : No
Forced : No


Menu
00:00:00.000 : en:The Monicans
00:05:27.035 : en:Una Flux
00:11:33.943 : en:A New Mission
00:14:51.599 : en:Sithandra
00:22:50.285 : en:Breaking Out
00:31:02.235 : en:Message
00:36:35.485 : en:Rude Awakening
00:44:49.353 : en:Something Wrong Inside
00:50:31.361 : en:Welcome Back
00:59:31.151 : enoyal to Something Deeper
01:06:52.258 : en:I Remember
01:12:53.994 : en:Orders Have Changed
01:20:21.024 : en:You Are Needed
01:24:15.300 : en:Only Once, But with Hope

资源速度为零或资源敏感被和谐时,推荐使用qBittorrent等下载软件,有条件的推荐115更好的下载软件!

下载地址:


游客,如果您要查看本帖隐藏内容请回复

游客,如果您要查看本帖隐藏内容请回复

游客,如果您要查看本帖隐藏内容请回复





上一篇:壮志凌云2:独行侠 [简繁中字] (2022) 4K高清版本下载
下一篇:DC萌宠特遣队 / DC League of Super-Pets (2022) 4K高清版本下载
回复

使用道具 举报

2

主题

1444

帖子

4170

积分

中级会员

Rank: 4

积分
4170
发表于 2022-8-23 10:47:08 | 显示全部楼层
为了三千积分!
回复 支持 反对

使用道具 举报

0

主题

2

帖子

12

积分

新手上路

Rank: 1

积分
12
发表于 2022-8-23 18:37:05 | 显示全部楼层
很老的片子了,不过很好看,想不到还4K版本。
回复 支持 反对

使用道具 举报

6

主题

1463

帖子

4235

积分

4K家园VIP

Rank: 9Rank: 9Rank: 9

积分
4235
发表于 2022-8-24 20:48:59 来自手机 | 显示全部楼层
正好需要啊
回复 支持 反对

使用道具 举报

0

主题

7

帖子

31

积分

新手上路

Rank: 1

积分
31
发表于 2022-8-25 09:24:50 | 显示全部楼层
爱仕达大所大所多ad
回复 支持 反对

使用道具 举报

1

主题

1314

帖子

3968

积分

4K家园VIP

Rank: 9Rank: 9Rank: 9

积分
3968
发表于 2022-8-25 11:10:28 | 显示全部楼层
纯粹路过,没任何兴趣,仅仅是看在老用户份上回复一下
回复 支持 反对

使用道具 举报

3

主题

1346

帖子

4064

积分

4K家园VIP

Rank: 9Rank: 9Rank: 9

积分
4064
发表于 2022-8-27 11:04:17 | 显示全部楼层
为毛老子总也抢不到沙发?!!
回复 支持 反对

使用道具 举报

0

主题

1337

帖子

4039

积分

4K家园VIP

Rank: 9Rank: 9Rank: 9

积分
4039
发表于 2022-9-1 16:42:58 来自手机 | 显示全部楼层
向楼主学习
回复 支持 反对

使用道具 举报

0

主题

4

帖子

15

积分

新手上路

Rank: 1

积分
15
发表于 2022-9-12 21:00:13 来自手机 | 显示全部楼层
回帖支持下。
回复 支持 反对

使用道具 举报

您需要登录后才可以回帖 登录 | 立即注册

本版积分规则

精彩图文
Archiver|手机版|TAG|Sitemap|新帖|专题|联系我们:邮箱: 4kjia.com@gmail.com   

4k家园   ©2019